<svg xmlns="http://www.w3.org/2000/svg" xml:space="preserve" viewBox="0 0 512 512">
  <font horiz-adv-x="1000">
    <font-face font-family="MyriadPro-Regular" underline-position="-100" underline-thickness="50"/>
    <glyph d="M424 212 496 0h93L359 674H255L25 0h90l70 212m18 68 66 195c14 41 24 83 34 122h2c10-39 20-79 35-123l67-194z" horiz-adv-x="612" unicode="A"/>
    <glyph d="m89 0 108 237h207L434 0h321l1 73H509l-30 241h240v72H468l-26 215h286l1 73H307L-1 0m227 308 87 197c15 36 31 74 43 106h4c2-34 8-78 12-109l22-194z" horiz-adv-x="788" unicode="Æ"/>
    <glyph d="m89 0 108 237h207L434 0h321l1 73H509l-30 241h240v72H468l-26 215h286l1 73H307L-1 0m227 308 87 197c15 36 31 74 43 106h4c2-34 8-78 12-109l22-194m94 519-92-117h71l128 117z" horiz-adv-x="788" unicode="Ǽ"/>
    <glyph d="M424 212 496 0h93L359 674H255L25 0h90l70 212m18 68 66 195c14 41 24 83 34 122h2c10-39 20-79 35-123l67-194m-59 547-93-117h71l128 117z" horiz-adv-x="612" unicode="Á"/>
    <glyph d="M424 212 496 0h93L359 674H255L25 0h90l70 212m18 68 66 195c14 41 24 83 34 122h2c10-39 20-79 35-123l67-194M181 817c2-60 38-106 123-106 86 0 123 47 125 106h-51c-5-26-24-49-73-49s-67 26-72 49z" horiz-adv-x="612" unicode="Ă"/>
    <glyph d="M424 212 496 0h93L359 674H255L25 0h90l70 212m18 68 66 195c14 41 24 83 34 122h2c10-39 20-79 35-123l67-194M276 824 174 710h71l64 69h2l63-69h74L343 824z" horiz-adv-x="612" unicode="Â"/>
    <glyph d="M424 212 496 0h93L359 674H255L25 0h90l70 212m18 68 66 195c14 41 24 83 34 122h2c10-39 20-79 35-123l67-194M216 719c30 0 49 23 49 51s-20 50-48 50-49-23-49-50c0-28 20-51 48-51m186 0c31 0 50 23 50 51s-20 50-48 50c-29 0-50-23-50-50 0-28 20-51 48-51z" horiz-adv-x="612" unicode="Ä"/>
    <glyph d="M424 212 496 0h93L359 674H255L25 0h90l70 212m18 68 66 195c14 41 24 83 34 122h2c10-39 20-79 35-123l67-194M161 827l128-116h71l-93 116z" horiz-adv-x="612" unicode="À"/>
    <glyph d="M424 212 496 0h93L359 674H255L25 0h90l70 212m18 68 66 195c14 41 24 83 34 122h2c10-39 20-79 35-123l67-194z" horiz-adv-x="612" unicode="Α"/>
    <glyph d="M427 212 500 0h93L363 674H258L29 0h90l70 212m17 68 67 195c13 41 23 83 33 122h2c10-39 21-79 35-123l67-194M70 674l-7-155h52l34 155z" horiz-adv-x="615" unicode="Ά"/>
    <glyph d="M424 212 496 0h93L359 674H255L25 0h90l70 212m18 68 66 195c14 41 24 83 34 122h2c10-39 20-79 35-123l67-194M185 788v-55h240v55z" horiz-adv-x="612" unicode="Ā"/>
    <glyph d="M359 674H255L25 0h91l69 212h239L495 4c-23-27-59-74-59-123 0-57 38-87 94-87 24 0 59 8 80 24l-14 45c-12-6-28-10-45-10-29 0-51 19-51 52 0 36 37 77 53 93l37 2M203 280l66 195c14 41 24 83 34 122h2c10-39 20-79 35-123l67-194z" horiz-adv-x="612" unicode="Ą"/>
    <glyph d="M424 212 496 0h93L359 674H255L25 0h90l70 212m18 68 66 195c14 41 24 83 34 122h2c10-39 20-79 35-123l67-194m-98 598c-63 0-101-41-101-91 0-49 40-88 100-88 58 0 99 38 99 88 0 51-38 91-98 91m-3-36c30 0 49-24 49-53 0-30-19-53-48-53s-48 25-48 51c0 29 17 55 47 55z" horiz-adv-x="612" unicode="Å"/>
    <glyph d="M312 692c55 0 90 33 90 77s-33 79-89 79c-58 0-92-36-92-79s34-77 91-77m-1 37c-26 0-44 18-44 40 0 23 15 43 43 43s46-19 46-42c0-25-18-41-45-41m55 223-107-86h78l143 86m-55-740L497 0h93L360 674H254L25 0h90l70 212m18 68 66 195c14 41 24 83 34 122h2c10-39 20-79 35-123l67-194z" horiz-adv-x="612" unicode="Ǻ"/>
    <glyph d="M424 212 496 0h93L359 674H255L25 0h90l70 212m18 68 66 195c14 41 24 83 34 122h2c10-39 20-79 35-123l67-194M232 715c3 27 10 44 26 44 15 0 28-9 48-19 21-11 40-19 61-19 46 0 68 34 67 97h-46c-3-32-12-39-27-39-16 0-32 9-48 18-21 11-38 20-60 20-43 0-69-41-68-102z" horiz-adv-x="612" unicode="Ã"/>
    <glyph d="M76 2c29-4 75-8 135-8 110 0 186 20 232 63 35 32 58 77 58 135 0 100-75 153-139 168v3c70 25 114 82 114 148 0 53-22 93-57 119-41 34-97 49-184 49-60 0-121-6-159-15m87-58c14 3 37 6 77 6 88 0 147-32 147-110 0-65-54-114-145-114h-79m0-65h72c95 0 174-39 174-130 0-98-83-131-173-131-31 0-55 1-73 4z" horiz-adv-x="542" unicode="B"/>
    <glyph d="M76 2c29-4 75-8 135-8 110 0 186 20 232 63 35 32 58 77 58 135 0 100-75 153-139 168v3c70 25 114 82 114 148 0 53-22 93-57 119-41 34-97 49-184 49-60 0-121-6-159-15m87-58c14 3 37 6 77 6 88 0 147-32 147-110 0-65-54-114-145-114h-79m0-65h72c95 0 174-39 174-130 0-98-83-131-173-131-31 0-55 1-73 4z" horiz-adv-x="542" unicode="Β"/>
    <glyph d="M529 91c-35-17-89-28-143-28-163 0-258 105-258 271 0 177 105 278 263 278 56 0 103-12 135-28l22 71c-23 12-77 30-160 30-209 0-352-142-352-354C36 109 178-11 368-11c82 0 147 16 178 32z" horiz-adv-x="580" unicode="C"/>
    <glyph d="M529 91c-35-17-89-28-143-28-163 0-258 105-258 271 0 177 105 278 263 278 56 0 103-12 135-28l22 71c-23 12-77 30-160 30-209 0-352-142-352-354C36 109 178-11 368-11c82 0 147 16 178 32M400 829l-93-117h71l128 117z" horiz-adv-x="580" unicode="Ć"/>
    <glyph d="M529 91c-35-17-89-28-143-28-163 0-258 105-258 271 0 177 105 278 263 278 56 0 103-12 135-28l22 71c-23 12-77 30-160 30-209 0-352-142-352-354C36 109 178-11 368-11c82 0 147 16 178 32M387 713l102 114h-71l-63-69h-2l-64 69h-74l105-114z" horiz-adv-x="580" unicode="Č"/>
    <glyph d="M530 91c-36-17-90-28-143-28-164 0-259 105-259 271 0 177 105 278 263 278 56 0 103-12 136-28l21 71c-22 12-76 30-159 30-210 0-353-142-353-354C36 128 154 12 319-7l-42-76c47-6 78-17 78-43 0-22-20-31-43-31-20 0-40 5-55 14l-14-45c18-10 45-17 71-17 52 0 103 22 103 81 0 40-32 67-70 74l25 40c83 1 145 16 175 32z" horiz-adv-x="585" unicode="Ç"/>
    <glyph d="M529 91c-35-17-89-28-143-28-163 0-258 105-258 271 0 177 105 278 263 278 56 0 103-12 135-28l22 71c-23 12-77 30-160 30-209 0-352-142-352-354C36 109 178-11 368-11c82 0 147 16 178 32M314 828 212 714h71l64 69h2l63-69h74L381 828z" horiz-adv-x="580" unicode="Ĉ"/>
    <glyph d="M529 91c-35-17-89-28-143-28-163 0-258 105-258 271 0 177 105 278 263 278 56 0 103-12 135-28l22 71c-23 12-77 30-160 30-209 0-352-142-352-354C36 109 178-11 368-11c82 0 147 16 178 32M348 719c28 0 49 24 49 51 0 26-21 50-48 50-28 0-50-24-50-50 0-27 21-51 49-51z" horiz-adv-x="580" unicode="Ċ"/>
    <glyph d="M546 0 336 346l205 328H440l-91-158c-25-43-42-74-61-114h-3c-18 36-37 70-62 114l-89 158H33l198-333L25 0h100l81 148c35 59 54 95 73 134h2c21-39 42-76 77-133L445 0z" horiz-adv-x="571" unicode="Χ"/>
    <glyph d="M76 2c44-5 95-8 158-8 131 0 235 34 299 97 62 62 97 152 97 262 0 109-35 187-96 242-59 54-148 84-273 84-69 0-132-6-185-15m87-63c23 5 57 9 102 9 184 0 274-101 273-260 0-182-100-286-287-286-34 0-66 1-88 4z" horiz-adv-x="666" unicode="D"/>
    <glyph d="M76 2c44-5 95-8 158-8 131 0 235 34 299 97 62 62 97 152 97 262 0 109-35 187-96 242-59 54-148 84-273 84-69 0-132-6-185-15m87-63c23 5 57 9 102 9 184 0 274-101 273-260 0-182-100-286-287-286-34 0-66 1-88 4m179 644 102 114h-71l-63-69h-2l-64 69h-74l105-114z" horiz-adv-x="666" unicode="Ď"/>
    <glyph d="M-1 307h82V0c44-4 95-7 158-7 130 0 234 34 298 97 62 63 97 152 97 263s-35 191-96 245c-58 55-148 84-272 84-69 0-132-6-185-15V377H-1m349 0H168v227c23 5 57 9 102 9 183 0 273-99 272-261 0-186-100-289-287-289-33 0-65 1-87 4v240h180z" horiz-adv-x="671" unicode="Đ"/>
    <glyph d="M544 0v50L335 656h-98L26 49V0m426 72H114l124 361c15 48 33 110 43 145h3c12-44 32-110 48-158z" horiz-adv-x="569" unicode="∆"/>
    <glyph d="M424 388H163v213h277v73H75V0h380v73H163v243h261z" horiz-adv-x="492" unicode="E"/>
    <glyph d="M424 388H163v213h277v73H75V0h380v73H163v243h261M302 827l-93-117h71l128 117z" horiz-adv-x="492" unicode="É"/>
    <glyph d="M424 388H163v213h277v73H75V0h380v73H163v243h261M130 825c2-60 38-106 123-106 86 0 123 47 125 106h-51c-5-26-24-49-73-49s-67 26-72 49z" horiz-adv-x="492" unicode="Ĕ"/>
    <glyph d="M424 388H163v213h277v73H75V0h380v73H163v243h261M291 710l102 114h-71l-63-69h-2l-64 69h-74l105-114z" horiz-adv-x="492" unicode="Ě"/>
    <glyph d="M424 388H163v213h277v73H75V0h380v73H163v243h261M223 824 121 710h71l64 69h2l63-69h74L290 824z" horiz-adv-x="492" unicode="Ê"/>
    <glyph d="M425 388H163v213h277v73H75V0h381v73H163v243h262M162 721c30 0 49 23 49 51s-20 50-48 50-49-23-49-50c0-28 20-51 48-51m185 0c31 0 50 23 50 51s-20 50-48 50c-29 0-50-23-50-50 0-28 20-51 48-51z" horiz-adv-x="492" unicode="Ë"/>
    <glyph d="M424 388H163v213h277v73H75V0h380v73H163v243h261M250 721c28 0 49 24 49 51 0 26-21 50-48 50-28 0-50-24-50-50 0-27 21-51 49-51z" horiz-adv-x="492" unicode="Ė"/>
    <glyph d="M424 388H163v213h277v73H75V0h380v73H163v243h261M119 827l128-116h71l-93 116z" horiz-adv-x="492" unicode="È"/>
    <glyph d="M424 388H163v213h277v73H75V0h380v73H163v243h261M139 788v-55h240v55z" horiz-adv-x="492" unicode="Ē"/>
    <glyph d="M158 0v288c0 112-1 193-6 278l3 1c33-73 78-150 125-225L498-6c-7-71-47-109-127-125l18-68c127 19 193 95 193 237v636h-82V392c0-105 2-187 10-277l-3-1c-31 69-71 140-120 219L172 674H76V0z" horiz-adv-x="658" unicode="Ŋ"/>
    <glyph d="M446-138c-15-6-29-8-44-8-26 0-45 14-45 40 0 37 41 79 82 105 6 0 11 1 16 1v73H163v243h261v72H163v213h277v73H75V0h293c-36-24-81-71-81-125 0-52 36-81 92-81 30 0 58 7 81 21z" horiz-adv-x="492" unicode="Ę"/>
    <glyph d="M424 388H163v213h277v73H75V0h380v73H163v243h261z" horiz-adv-x="492" unicode="Ε"/>
    <glyph d="M494 388H233v213h277v73H145V0h380v73H233v243h261M7 674 0 519h52l35 155z" horiz-adv-x="561" unicode="Έ"/>
    <glyph d="M75 674V0h88v316h326V0h88v674h-88V392H163v282z" horiz-adv-x="652" unicode="Η"/>
    <glyph d="M145 674V0h87v316h326V0h88v674h-88V392H232v282M7 674 0 519h52l34 155z" horiz-adv-x="722" unicode="Ή"/>
    <glyph d="M-1 307h82V0c44-4 95-7 158-7 130 0 234 34 298 97 62 63 97 152 97 263s-35 191-96 245c-58 55-148 84-272 84-69 0-132-6-185-15V377H-1m349 0H168v227c23 5 57 9 102 9 183 0 273-99 272-261 0-186-100-289-287-289-33 0-65 1-87 4v240h180z" horiz-adv-x="671" unicode="Ð"/>
    <glyph d="M479 94c-23-14-69-33-122-33-54 0-104 18-141 58-28 30-47 73-55 131h283v50H154v17c0 15 0 29 2 42h288v50H165c10 53 30 98 59 128 34 35 79 54 133 54 45 0 86-13 112-28l20 66c-28 15-74 32-134 32-81 0-147-30-197-83-41-41-70-99-82-169H10v-50h59c-1-14-2-29-2-44v-15H10v-50h62c9-72 34-130 72-172 49-58 122-89 203-89 65 0 118 20 149 41z" horiz-adv-x="513" unicode="€"/>
    <glyph d="M466 83c-23-13-64-26-113-26-50 0-90 14-126 49-18 17-32 43-39 72h249v49H178c-1 12-1 22-1 30 0 7 1 18 2 29h258v48H189c5 31 21 58 41 78 35 34 78 48 123 48 48 0 81-12 104-24l20 62c-26 13-64 28-123 28-69 0-138-24-189-75-30-30-52-71-63-117H38v-48h56c-1-13-2-25-2-35 0-6 1-13 1-24H38v-49h63c9-47 31-90 61-120 48-47 113-69 179-69 61 0 114 18 137 33z" horiz-adv-x="530" unicode=""/>
    <glyph d="M75 0h88v305h254v72H163v224h275v73H75z" horiz-adv-x="487" unicode="F"/>
    <glyph d="M590 354H368v-70h136V83c-20-10-59-18-116-18-158 0-260 101-260 272 0 169 107 271 271 271 68 0 113-12 149-29l22 71c-29 14-91 31-169 31-226 0-365-147-365-348 0-105 36-195 94-251C196 19 280-7 382-7c91 0 169 22 208 37z" horiz-adv-x="646" unicode="G"/>
    <glyph d="M590 354H368v-70h136V83c-20-10-59-18-116-18-158 0-260 101-260 272 0 169 107 271 271 271 68 0 113-12 149-29l22 71c-29 14-91 31-169 31-226 0-365-147-365-348 0-105 36-195 94-251C196 19 280-7 382-7c91 0 169 22 208 37M291 715c3 27 10 44 26 44 15 0 28-9 47-19 23-11 41-19 62-19 46 0 68 34 67 97h-46c-3-32-12-39-27-39-16 0-32 9-48 18-22 11-38 20-60 20-43 0-69-41-68-102z" horiz-adv-x="646" unicode=""/>
    <glyph d="M75 674V0h88v601h274v73z" horiz-adv-x="451" unicode="Γ"/>
    <glyph d="M590 354H368v-70h136V83c-20-10-59-18-116-18-158 0-260 101-260 272 0 169 107 271 271 271 68 0 113-12 149-29l22 71c-29 14-91 31-169 31-226 0-365-147-365-348 0-105 36-195 94-251C196 19 280-7 382-7c91 0 169 22 208 37M231 827c2-60 38-106 122-106 86 0 123 47 125 106h-51c-5-26-24-49-72-49-49 0-67 26-72 49z" horiz-adv-x="646" unicode="Ğ"/>
    <glyph d="M590 354H368v-70h136V83c-20-10-59-18-116-18-158 0-260 101-260 272 0 169 107 271 271 271 68 0 113-12 149-29l22 71c-29 14-91 31-169 31-226 0-365-147-365-348 0-105 36-195 94-251C196 19 280-7 382-7c91 0 169 22 208 37M326 827 224 713h71l64 69h2l63-69h74L393 827z" horiz-adv-x="646" unicode="Ĝ"/>
    <glyph d="M590 354H368v-70h136V83c-20-10-59-18-116-18-158 0-260 101-260 272 0 169 107 271 271 271 68 0 113-12 149-29l22 71c-29 14-91 31-169 31-226 0-365-147-365-348 0-105 36-195 94-251C196 19 280-7 382-7c91 0 169 22 208 37M298-222c62 4 129 34 129 107 0 33-20 61-40 74l-65-14c18-15 34-37 34-61 0-39-36-59-75-65z" horiz-adv-x="646" unicode="Ģ"/>
    <glyph d="M590 354H368v-70h136V83c-20-10-59-18-116-18-158 0-260 101-260 272 0 169 107 271 271 271 68 0 113-12 149-29l22 71c-29 14-91 31-169 31-226 0-365-147-365-348 0-105 36-195 94-251C196 19 280-7 382-7c91 0 169 22 208 37M361 719c28 0 49 24 49 51 0 26-21 50-48 50-28 0-50-24-50-50 0-27 21-51 49-51z" horiz-adv-x="646" unicode="Ġ"/>
    <glyph d="M75 674V0h88v316h326V0h88v674h-88V392H163v282z" horiz-adv-x="652" unicode="H"/>
    <glyph d="M636 479v58h-57v137h-88V537H166v137H78V537H21v-58h57V0h88v301h325V0h88v479m-88-102H166v102h325z" horiz-adv-x="657" unicode="Ħ"/>
    <glyph d="M75 674V0h88v316h326V0h88v674h-88V392H163v282m129 150L190 710h71l64 69h2l63-69h74L359 824z" horiz-adv-x="652" unicode="Ĥ"/>
    <glyph d="M75 674V0h88v674z" horiz-adv-x="239" unicode="I"/>
    <glyph d="M75 674V0h88v674m290-443c0-133-45-168-123-168-30 0-56 6-74 13L243 5c22-9 61-16 94-16 116 0 204 55 204 234v451h-88z" horiz-adv-x="609" unicode="Ĳ"/>
    <glyph d="M75 674V0h88v674m-3 153L67 710h71l128 117z" horiz-adv-x="239" unicode="Í"/>
    <glyph d="M75 674V0h88v674M-4 823c2-60 38-106 122-106 86 0 123 47 125 106h-51c-5-26-24-49-72-49-49 0-67 26-72 49z" horiz-adv-x="239" unicode="Ĭ"/>
    <glyph d="M75 674V0h88v674M85 824-17 710h71l64 69h2l63-69h74L152 824z" horiz-adv-x="239" unicode="Î"/>
    <glyph d="M75 674V0h88v674M27 721c30 0 49 23 49 51s-20 50-48 50-49-23-49-50c0-28 20-51 48-51m185 0c31 0 50 23 50 51s-20 50-48 50c-29 0-50-23-50-50 0-28 20-51 48-51z" horiz-adv-x="239" unicode="Ï"/>
    <glyph d="M75 674V0h88v674m-43 47c28 0 49 24 49 51 0 26-21 50-48 50-28 0-50-24-50-50 0-27 21-51 49-51z" horiz-adv-x="239" unicode="İ"/>
    <glyph d="M75 674V0h88v674M-25 827l128-116h71L81 827z" horiz-adv-x="239" unicode="Ì"/>
    <glyph d="M75 674V0h88v674M0 788v-55h240v55z" horiz-adv-x="239" unicode="Ī"/>
    <glyph d="M163 674H75V0C58-27 28-74 28-123c0-57 38-87 93-87 25 0 60 8 81 23l-14 46c-11-5-26-9-45-9-29 0-51 18-51 52 0 36 26 77 41 98h30z" horiz-adv-x="239" unicode="Į"/>
    <glyph d="M75 674V0h88v674z" horiz-adv-x="239" unicode="Ι"/>
    <glyph d="M27 711c30 0 49 23 49 50 0 28-21 50-48 50-28 0-50-23-50-50s20-50 49-50m183 0c31 0 50 23 50 50 0 28-21 50-48 50-29 0-50-23-50-50s20-50 48-50M75 674V0h88v674z" horiz-adv-x="239" unicode="Ϊ"/>
    <glyph d="M145 674V0h88v674M7 674 0 519h52l35 155z" horiz-adv-x="309" unicode="Ί"/>
    <glyph d="M75 674V0h88v674M43 715c3 27 10 44 26 44 15 0 28-9 47-19 22-11 40-19 61-19 46 0 68 34 67 97h-46c-3-32-12-39-27-39-16 0-32 9-48 18-21 11-37 20-59 20-43 0-69-41-68-102z" horiz-adv-x="239" unicode="Ĩ"/>
    <glyph d="M213 230C213 98 168 63 90 63c-30 0-56 6-74 13L4 5c21-9 60-16 93-16 116 0 204 55 204 234v451h-88z" horiz-adv-x="370" unicode="J"/>
    <glyph d="M213 230C213 98 168 63 90 63c-30 0-56 6-74 13L4 5c21-9 60-16 93-16 116 0 204 55 204 234v451h-88m6 150L117 710h71l64 69h2l63-69h74L286 824z" horiz-adv-x="370" unicode="Ĵ"/>
    <glyph d="M76 0h87v257l65 74L449 0h103L289 388l244 286H425L219 421c-17-22-35-46-53-72h-3v325H76z" horiz-adv-x="542" unicode="K"/>
    <glyph d="M76 0h87v257l65 74L449 0h103L289 388l244 286H425L219 421c-17-22-35-46-53-72h-3v325H76z" horiz-adv-x="542" unicode="Κ"/>
    <glyph d="M76 0h87v257l65 74L449 0h103L289 388l244 286H425L219 421c-17-22-35-46-53-72h-3v325H76m139-894c62 4 129 34 129 107 0 33-20 61-40 74l-65-14c18-15 34-37 34-61 0-39-36-59-75-65z" horiz-adv-x="542" unicode="Ķ"/>
    <glyph d="M75 0h376v73H163v601H75z" horiz-adv-x="472" unicode="L"/>
    <glyph d="M75 0h376v73H163v601H75m104 153L86 710h71l128 117z" horiz-adv-x="472" unicode="Ĺ"/>
    <glyph d="M590 0 358 674H255L25 0h91l153 465c13 44 24 85 33 127h3c10-41 20-81 35-128L496 0z" horiz-adv-x="609" unicode="Λ"/>
    <glyph d="M75 0h376v73H163v601H75m185-170c62 4 129 34 129 107 0 33-20 61-40 74l-65-14c18-15 34-37 34-61 0-39-36-59-75-65z" horiz-adv-x="472" unicode="Ľ"/>
    <glyph d="M75 0h376v73H163v601H75m112-896c62 4 129 34 129 107 0 33-20 61-40 74l-65-14c18-15 34-37 34-61 0-39-36-59-75-65z" horiz-adv-x="472" unicode="Ļ"/>
    <glyph d="M75 0h376v73H163v601H75m265-353c28 0 49 24 49 51 0 26-21 50-48 50-28 0-50-24-50-50 0-27 21-51 49-51z" horiz-adv-x="472" unicode="Ŀ"/>
    <glyph d="M455 0v73H167v255l134 97v68l-134-97v278H79V336l-84-61v-67l84 61V0z" horiz-adv-x="476" unicode="Ł"/>
    <glyph d="M660 0h86l-42 674H593L473 348c-30-85-54-159-72-227h-2c-18 70-40 144-68 227L216 674H105L58 0h83l18 289c6 102 11 214 13 298h2c19-80 45-166 77-262L361 4h66l119 327c34 93 61 178 85 256h2c0-83 6-197 11-291z" horiz-adv-x="804" unicode="M"/>
    <glyph d="M660 0h86l-42 674H593L473 348c-30-85-54-159-72-227h-2c-18 70-40 144-68 227L216 674H105L58 0h83l18 289c6 102 11 214 13 298h2c19-80 45-166 77-262L361 4h66l119 327c34 93 61 178 85 256h2c0-83 6-197 11-291M367 824 265 710h71l64 69h2l63-69h74L434 824z" horiz-adv-x="804" unicode=""/>
    <glyph d="M660 0h86l-42 674H593L473 348c-30-85-54-159-72-227h-2c-18 70-40 144-68 227L216 674H105L58 0h83l18 289c6 102 11 214 13 298h2c19-80 45-166 77-262L361 4h66l119 327c34 93 61 178 85 256h2c0-83 6-197 11-291z" horiz-adv-x="804" unicode="Μ"/>
    <glyph d="M158 0v288c0 112-1 193-6 278l3 1c33-73 78-150 125-225L494 0h88v674h-82V392c0-105 2-187 10-277l-3-1c-31 69-71 140-120 219L172 674H76V0z" horiz-adv-x="658" unicode="N"/>
    <glyph d="M158 0v288c0 112-1 193-6 278l3 1c33-73 78-150 125-225L494 0h88v674h-82V392c0-105 2-187 10-277l-3-1c-31 69-71 140-120 219L172 674H76V0m219 824L192 710h71l64 69h2l63-69h74L361 824z" horiz-adv-x="658" unicode=""/>
    <glyph d="M158 0v288c0 112-1 193-6 278l3 1c33-73 78-150 125-225L494 0h88v674h-82V392c0-105 2-187 10-277l-3-1c-31 69-71 140-120 219L172 674H76V0m294 827-92-117h71l128 117z" horiz-adv-x="658" unicode="Ń"/>
    <glyph d="M158 0v288c0 112-1 193-6 278l3 1c33-73 78-150 125-225L494 0h88v674h-82V392c0-105 2-187 10-277l-3-1c-31 69-71 140-120 219L172 674H76V0m288 705 103 114h-71l-63-69h-2l-64 69h-74l105-114z" horiz-adv-x="658" unicode="Ň"/>
    <glyph d="M158 0v288c0 112-1 193-6 278l3 1c33-73 78-150 125-225L494 0h88v674h-82V392c0-105 2-187 10-277l-3-1c-31 69-71 140-120 219L172 674H76V0m194-221c62 4 129 34 129 107 0 33-20 61-40 74l-65-14c18-15 34-37 34-61 0-39-36-59-75-65z" horiz-adv-x="658" unicode="Ņ"/>
    <glyph d="M158 0v288c0 112-1 193-6 278l3 1c33-73 78-150 125-225L494 0h88v674h-82V392c0-105 2-187 10-277l-3-1c-31 69-71 140-120 219L172 674H76V0m181 715c3 27 10 44 26 44 14 0 28-9 47-19 22-11 40-19 61-19 46 0 68 34 67 97h-46c-3-32-12-39-27-39-16 0-32 9-48 18-21 11-37 20-59 20-43 0-69-41-68-102z" horiz-adv-x="658" unicode="Ñ"/>
    <glyph d="M158 0v288c0 112-1 193-6 278l3 1c33-73 78-150 125-225L494 0h88v674h-82V392c0-105 2-187 10-277l-3-1c-31 69-71 140-120 219L172 674H76V0z" horiz-adv-x="658" unicode="Ν"/>
    <glyph d="M348 686C168 686 36 546 36 332 36 128 160-11 339-11c172 0 313 124 313 355 0 201-119 342-304 342m-3-71c145 0 215-140 215-275 0-153-78-280-216-280S128 189 128 334c0 147 72 281 217 281z" horiz-adv-x="689" unicode="O"/>
    <glyph d="M857 73H565v242h261v72H565v214h277v73H520c-18 0-39 3-64 6s-53 6-88 6C174 686 36 554 36 332 36 139 153-11 363-11c31 0 58 3 83 5 24 3 46 6 66 6h345M477 73c-22-8-61-13-98-13-159 0-251 112-251 276 0 165 92 279 242 279 49 0 81-6 107-15z" horiz-adv-x="894" unicode="Œ"/>
    <glyph d="M348 686C168 686 36 546 36 332 36 128 160-11 339-11c172 0 313 124 313 355 0 201-119 342-304 342m-3-71c145 0 215-140 215-275 0-153-78-280-216-280S128 189 128 334c0 147 72 281 217 281m39 214-93-117h71l128 117z" horiz-adv-x="689" unicode="Ó"/>
    <glyph d="M348 686C168 686 36 546 36 332 36 128 160-11 339-11c172 0 313 124 313 355 0 201-119 342-304 342m-3-71c145 0 215-140 215-275 0-153-78-280-216-280S128 189 128 334c0 147 72 281 217 281M220 830c2-60 38-106 122-106 86 0 123 47 125 106h-51c-5-26-24-49-72-49-49 0-67 26-72 49z" horiz-adv-x="689" unicode="Ŏ"/>
    <glyph d="M348 686C168 686 36 546 36 332 36 128 160-11 339-11c172 0 313 124 313 355 0 201-119 342-304 342m-3-71c145 0 215-140 215-275 0-153-78-280-216-280S128 189 128 334c0 147 72 281 217 281m-36 212L207 713h71l64 69h2l63-69h74L376 827z" horiz-adv-x="689" unicode="Ô"/>
    <glyph d="M348 686C168 686 36 546 36 332 36 128 160-11 339-11c172 0 313 124 313 355 0 201-119 342-304 342m-3-71c145 0 215-140 215-275 0-153-78-280-216-280S128 189 128 334c0 147 72 281 217 281m-94 106c30 0 49 23 49 51s-20 50-48 50-49-23-49-50c0-28 20-51 48-51m185 0c31 0 50 23 50 51s-20 50-48 50c-29 0-50-23-50-50 0-28 20-51 48-51z" horiz-adv-x="689" unicode="Ö"/>
    <glyph d="M348 686C168 686 36 546 36 332 36 128 160-11 339-11c172 0 313 124 313 355 0 201-119 342-304 342m-3-71c145 0 215-140 215-275 0-153-78-280-216-280S128 189 128 334c0 147 72 281 217 281M199 829l128-116h71l-93 116z" horiz-adv-x="689" unicode="Ò"/>
    <glyph d="M344 60c-138 0-216 131-216 274 0 145 72 281 217 281s215-140 215-275c0-153-78-280-216-280m248 681c10-18 17-40 17-64 0-30-12-45-45-45-32 0-80 26-111 36-26 10-64 18-105 18-180 0-312-140-312-354C36 128 160-11 339-11c172 0 313 124 313 355 0 106-33 187-78 238 72-6 105 35 105 90 0 34-9 60-19 82z" horiz-adv-x="689" unicode="Ơ"/>
    <glyph d="M348 686C168 686 36 546 36 332 36 128 160-11 339-11c172 0 313 124 313 355 0 201-119 342-304 342m-3-71c145 0 215-140 215-275 0-153-78-280-216-280S128 189 128 334c0 147 72 281 217 281m-26 215-80-112h64l111 112m52 0-80-112h64l111 112z" horiz-adv-x="689" unicode="Ő"/>
    <glyph d="M348 686C168 686 36 546 36 332 36 128 160-11 339-11c172 0 313 124 313 355 0 201-119 342-304 342m-3-71c145 0 215-140 215-275 0-153-78-280-216-280S128 189 128 334c0 147 72 281 217 281M225 794v-55h240v55z" horiz-adv-x="689" unicode="Ō"/>
    <glyph d="M528 72c67 57 133 156 133 295 0 178-117 319-304 319-179 0-314-135-314-328 1-129 66-230 133-286v-3H30V0h254v55c-80 50-150 170-150 296 0 133 79 264 221 264 143 0 216-139 216-262 0-136-69-243-149-298V0h253v69H528z" horiz-adv-x="705" unicode="Ω"/>
    <glyph d="M565 72c68 55 133 154 133 294 0 178-117 320-304 320-179 0-314-136-314-329 0-130 64-229 132-285v-3H66V0h254v55c-79 49-149 165-149 295 0 133 79 265 221 265 143 0 216-140 216-264 0-139-69-242-150-296V0h253v69H565M7 674 0 519h52l35 155z" horiz-adv-x="742" unicode="Ώ"/>
    <glyph d="M339-11c172 0 313 124 313 355 0 201-119 342-304 342-180 0-312-140-312-354C36 128 160-11 339-11m5 71c-138 0-216 131-216 274 0 145 72 281 217 281s215-140 215-275c0-153-78-280-216-280z" horiz-adv-x="689" unicode="Ο"/>
    <glyph d="M379-11c172 0 313 124 313 355 0 201-119 342-304 342-180 0-312-140-312-354C76 128 200-11 379-11m5 71c-138 0-216 131-216 274 0 145 72 281 217 281s215-140 215-275c0-153-78-280-216-280M7 674 0 519h52l35 155z" horiz-adv-x="728" unicode="Ό"/>
    <glyph d="m112-43 63 86c48-35 107-54 170-54 162 0 307 119 307 354 0 99-31 187-87 248l62 86-53 36-59-81c-48 36-106 54-168 54-177 0-311-139-311-352 0-101 33-189 89-250L63-3m113 161-2-1c-30 52-49 106-49 181 0 142 74 278 220 278 51 0 93-18 127-47m41-53h3c35-58 47-118 47-176 0-151-79-281-219-281-55 0-93 17-126 48z" horiz-adv-x="689" unicode="Ø"/>
    <glyph d="m112-43 63 86c48-35 107-54 170-54 162 0 307 119 307 354 0 99-31 187-87 248l62 86-53 36-59-81c-48 36-106 54-168 54-177 0-311-139-311-352 0-101 33-189 89-250L63-3m113 161-2-1c-30 52-49 106-49 181 0 142 74 278 220 278 51 0 93-18 127-47m41-53h3c35-58 47-118 47-176 0-151-79-281-219-281-55 0-93 17-126 48m174 728-93-117h71l128 117z" horiz-adv-x="689" unicode="Ǿ"/>
    <glyph d="M348 686C168 686 36 546 36 332 36 128 160-11 339-11c172 0 313 124 313 355 0 201-119 342-304 342m-3-71c145 0 215-140 215-275 0-153-78-280-216-280S128 189 128 334c0 147 72 281 217 281m-78 103c3 26 10 43 26 43 15 0 28-9 47-19 22-11 40-19 61-19 46 0 68 34 67 97h-46c-3-32-12-39-27-39-16 0-32 9-48 18-21 11-37 20-59 20-43 0-69-41-68-101z" horiz-adv-x="689" unicode="Õ"/>
    <glyph d="M76 0h87v270c20-5 44-6 70-6 85 0 159 25 206 74 34 35 52 83 52 144 0 60-23 109-59 141-40 36-103 56-189 56-70 0-125-6-167-13m87-63c15 4 44 7 82 7 95 0 159-43 159-133 0-91-64-143-169-143-29 0-53 2-72 7z" horiz-adv-x="532" unicode="P"/>
    <glyph d="M400 26c141 11 282 112 282 312 0 199-141 302-280 312v50h-84v-50C190 641 36 540 36 333 36 132 179 38 316 26v-52h84M317 89c-98 12-191 98-191 246 0 162 104 246 191 253m84 0c95-9 191-91 191-252 0-154-95-238-191-247z" horiz-adv-x="718" unicode="Φ"/>
    <glyph d="M558 674H75V0h88v600h307V0h88z" horiz-adv-x="634" unicode="Π"/>
    <glyph d="M638 674h-85V488c0-154-80-209-169-214v400h-83V275c-99 5-169 57-169 194v205H47V454c0-176 124-243 254-248V0h83v206c149 8 254 98 254 273z" horiz-adv-x="685" unicode="Ψ"/>
    <glyph d="M657-26C600-16 527 0 460 17v4c112 40 192 150 192 324 0 199-119 341-303 341-182 0-313-139-313-355C36 113 172-5 333-11c13 0 26-5 41-10 78-27 167-54 258-78M344 60c-138 0-216 129-216 273 0 146 72 282 219 282 143 0 213-139 213-275 0-153-78-280-216-280z" horiz-adv-x="689" unicode="Q"/>
    <glyph d="M76 0h87v292h82c79-3 116-38 136-131 18-84 33-141 44-161h90c-14 26-30 91-52 185-16 70-47 118-98 136v3c70 24 126 83 126 171 0 53-20 99-53 129-41 37-102 55-195 55-59 0-123-6-167-14m87-61c15 4 44 7 86 7 92 0 155-38 155-125 0-77-59-128-152-128h-89z" horiz-adv-x="538" unicode="R"/>
    <glyph d="M76 0h87v292h82c79-3 116-38 136-131 18-84 33-141 44-161h90c-14 26-30 91-52 185-16 70-47 118-98 136v3c70 24 126 83 126 171 0 53-20 99-53 129-41 37-102 55-195 55-59 0-123-6-167-14m87-61c15 4 44 7 86 7 92 0 155-38 155-125 0-77-59-128-152-128h-89m139 471-93-117h71l128 117z" horiz-adv-x="538" unicode="Ŕ"/>
    <glyph d="M76 0h87v292h82c79-3 116-38 136-131 18-84 33-141 44-161h90c-14 26-30 91-52 185-16 70-47 118-98 136v3c70 24 126 83 126 171 0 53-20 99-53 129-41 37-102 55-195 55-59 0-123-6-167-14m87-61c15 4 44 7 86 7 92 0 155-38 155-125 0-77-59-128-152-128h-89m135 355 102 114h-71l-63-69h-2l-64 69h-74l105-114z" horiz-adv-x="538" unicode="Ř"/>
    <glyph d="M76 0h87v292h82c79-3 116-38 136-131 18-84 33-141 44-161h90c-14 26-30 91-52 185-16 70-47 118-98 136v3c70 24 126 83 126 171 0 53-20 99-53 129-41 37-102 55-195 55-59 0-123-6-167-14m87-61c15 4 44 7 86 7 92 0 155-38 155-125 0-77-59-128-152-128h-89m49-573c62 4 129 34 129 107 0 33-20 61-40 74l-65-14c18-15 34-37 34-61 0-39-36-59-75-65z" horiz-adv-x="538" unicode="Ŗ"/>
    <glyph d="M76 0h87v270c20-5 44-6 70-6 85 0 159 25 206 74 34 35 52 83 52 144 0 60-23 109-59 141-40 36-103 56-189 56-70 0-125-6-167-13m87-63c15 4 44 7 82 7 95 0 159-43 159-133 0-91-64-143-169-143-29 0-53 2-72 7z" horiz-adv-x="532" unicode="Ρ"/>
    <glyph d="M42 33C78 9 149-11 214-11c159 0 235 91 235 195 0 99-57 154-171 198-93 36-134 67-134 130 0 46 35 101 127 101 61 0 106-19 127-32l24 71c-29 17-80 33-148 33-131 0-218-78-218-183 0-94 68-152 178-192 91-34 127-71 127-133 0-68-52-115-141-115-60 0-116 19-155 44z" horiz-adv-x="493" unicode="S"/>
    <glyph d="M42 33C78 9 149-11 214-11c159 0 235 91 235 195 0 99-57 154-171 198-93 36-134 67-134 130 0 46 35 101 127 101 61 0 106-19 127-32l24 71c-29 17-80 33-148 33-131 0-218-78-218-183 0-94 68-152 178-192 91-34 127-71 127-133 0-68-52-115-141-115-60 0-116 19-155 44m233 723-92-117h71l128 117z" horiz-adv-x="493" unicode="Ś"/>
    <glyph d="M42 33C78 9 149-11 214-11c159 0 235 91 235 195 0 99-57 154-171 198-93 36-134 67-134 130 0 46 35 101 127 101 61 0 106-19 127-32l24 71c-29 17-80 33-148 33-131 0-218-78-218-183 0-94 68-152 178-192 91-34 127-71 127-133 0-68-52-115-141-115-60 0-116 19-155 44m227 607 102 114h-71l-63-69h-2l-64 69h-74l105-114z" horiz-adv-x="493" unicode="Š"/>
    <glyph d="M42 33C80 8 153-11 211-11h7l-40-70c47-5 77-17 77-42 0-22-19-31-41-31-21 0-39 6-55 14l-14-43c16-10 42-17 69-17 53 0 103 23 103 80 0 37-32 64-70 70l28 44C393 15 449 95 449 184c0 99-57 154-171 198-93 36-134 67-134 130 0 46 35 101 127 101 61 0 106-19 127-32l24 71c-29 17-80 33-148 33-131 0-218-78-218-183 0-94 68-152 178-192 91-34 127-71 127-133 0-68-52-115-141-115-60 0-116 19-155 44z" horiz-adv-x="493" unicode="Ş"/>
    <glyph d="M42 33C80 8 153-11 211-11h7l-40-70c47-5 77-17 77-42 0-22-19-31-41-31-21 0-39 6-55 14l-14-43c16-10 42-17 69-17 53 0 103 23 103 80 0 37-32 64-70 70l28 44C393 15 449 95 449 184c0 99-57 154-171 198-93 36-134 67-134 130 0 46 35 101 127 101 61 0 106-19 127-32l24 71c-29 17-80 33-148 33-131 0-218-78-218-183 0-94 68-152 178-192 91-34 127-71 127-133 0-68-52-115-141-115-60 0-116 19-155 44z" horiz-adv-x="340" unicode=""/>
    <glyph d="M42 33C78 9 149-11 214-11c159 0 235 91 235 195 0 99-57 154-171 198-93 36-134 67-134 130 0 46 35 101 127 101 61 0 106-19 127-32l24 71c-29 17-80 33-148 33-131 0-218-78-218-183 0-94 68-152 178-192 91-34 127-71 127-133 0-68-52-115-141-115-60 0-116 19-155 44m149 721L111 713h71l64 69h2l63-69h74L280 827z" horiz-adv-x="493" unicode="Ŝ"/>
    <glyph d="M42 33C78 9 149-11 214-11c159 0 235 91 235 195 0 99-57 154-171 198-93 36-134 67-134 130 0 46 35 101 127 101 61 0 106-19 127-32l24 71c-29 17-80 33-148 33-131 0-218-78-218-183 0-94 68-152 178-192 91-34 127-71 127-133 0-68-52-115-141-115-60 0-116 19-155 44m121-328c61 4 128 34 128 107 0 33-20 61-40 74l-65-14c18-15 34-37 34-61 0-39-36-59-75-65z" horiz-adv-x="493" unicode="Ș"/>
    <glyph d="m140 76 217 262-206 260v4h341v72H38v-58l222-281L26 52V0h498v73H140z" horiz-adv-x="552" unicode="Σ"/>
    <glyph d="M204 0h88v600h206v74H-1v-74h205z" horiz-adv-x="497" unicode="T"/>
    <glyph d="M204 0h88v600h206v74H-1v-74h205z" horiz-adv-x="497" unicode="Τ"/>
    <glyph d="M498 600v74H-1v-74h205V378H79v-58h125V0h88v320h124v58H292v222z" horiz-adv-x="497" unicode="Ŧ"/>
    <glyph d="M204 0h88v600h206v74H-1v-74h205m79 110 102 114h-71l-63-69h-2l-64 69h-74l105-114z" horiz-adv-x="497" unicode="Ť"/>
    <glyph d="M204 0h88v600h206v74H-1v-74h205m-24-822c62 4 129 34 129 107 0 33-20 61-40 74l-65-14c18-15 34-37 34-61 0-39-36-59-75-65z" horiz-adv-x="497" unicode="Ţ"/>
    <glyph d="M340-11c172 0 313 124 313 354 0 202-120 343-304 343-180 0-313-141-313-355C36 127 161-11 340-11m5 71c-138 0-217 131-217 273 0 146 72 282 218 282 145 0 215-140 215-275 0-153-78-280-216-280M209 383v-72h271v72z" horiz-adv-x="689" unicode="Θ"/>
    <glyph d="M76 0h86v156c21-3 48-5 76-5 146 0 253 71 253 214 0 51-20 98-55 130-41 37-99 55-178 55-36 0-69-2-96-7v131H76m86-201c16 4 48 8 88 8 91 0 154-39 154-126 0-82-59-134-167-134-26 0-52 1-75 6z" horiz-adv-x="531" unicode="Þ"/>
    <glyph d="M75 674V277C75 67 179-11 317-11c146 0 255 84 255 291v394h-88V274c0-148-65-214-164-214-90 0-157 64-157 214v400z" horiz-adv-x="647" unicode="U"/>
    <glyph d="M75 674V277C75 67 179-11 317-11c146 0 255 84 255 291v394h-88V274c0-148-65-214-164-214-90 0-157 64-157 214v400m204 153-93-117h71l128 117z" horiz-adv-x="647" unicode="Ú"/>
    <glyph d="M75 674V277C75 67 179-11 317-11c146 0 255 84 255 291v394h-88V274c0-148-65-214-164-214-90 0-157 64-157 214v400m36 153c2-60 38-106 123-106 86 0 123 47 125 106h-51c-5-26-24-49-73-49s-67 26-72 49z" horiz-adv-x="647" unicode="Ŭ"/>
    <glyph d="M75 674V277C75 67 179-11 317-11c146 0 255 84 255 291v394h-88V274c0-148-65-214-164-214-90 0-157 64-157 214v400m132 150L193 710h71l64 69h2l63-69h74L362 824z" horiz-adv-x="647" unicode="Û"/>
    <glyph d="M75 674V277C75 67 179-11 317-11c146 0 255 84 255 291v394h-88V274c0-148-65-214-164-214-90 0-157 64-157 214v400m69 47c30 0 49 23 49 51s-20 50-48 50-49-23-49-50c0-28 20-51 48-51m186 0c31 0 50 23 50 51s-20 50-48 50c-29 0-50-23-50-50 0-28 20-51 48-51z" horiz-adv-x="647" unicode="Ü"/>
    <glyph d="M75 674V277C75 67 179-11 317-11c146 0 255 84 255 291v394h-88V274c0-148-65-214-164-214-90 0-157 64-157 214v400m20 153 128-116h71l-93 116z" horiz-adv-x="647" unicode="Ù"/>
    <glyph d="M593 770c10-18 16-39 16-58 0-26-12-38-46-38h-79V274c0-148-65-214-164-214-90 0-157 64-157 214v400H75V277C75 67 179-11 317-11c146 0 255 84 255 291v341l15 1c60 2 90 36 90 85 0 28-7 53-17 75z" horiz-adv-x="677" unicode="Ư"/>
    <glyph d="M75 674V277C75 67 179-11 317-11c146 0 255 84 255 291v394h-88V274c0-148-65-214-164-214-90 0-157 64-157 214v400m120 153-80-112h64l111 112m52 0-80-112h64l111 112z" horiz-adv-x="647" unicode="Ű"/>
    <glyph d="M75 674V277C75 67 179-11 317-11c146 0 255 84 255 291v394h-88V274c0-148-65-214-164-214-90 0-157 64-157 214v400m40 114v-55h240v55z" horiz-adv-x="647" unicode="Ū"/>
    <glyph d="M415-135c-13-6-29-10-45-10-26 0-45 14-45 43 0 35 34 76 61 100 109 23 186 111 186 282v394h-88V274c0-148-64-214-164-214-90 0-157 64-157 214v400H75V277C75 71 175-7 308-11h6c-27-29-57-69-57-113 0-50 35-80 90-80 27 0 61 9 82 24z" horiz-adv-x="647" unicode="Ų"/>
    <glyph d="M11 609c88-20 182-118 222-299 9-41 14-86 14-136V0h88v173c0 52 8 98 18 138 46 174 157 270 231 298l-15 71c-45-7-106-43-153-93-49-53-101-137-117-245h-4c-13 106-53 190-104 247-46 54-118 87-165 91z" horiz-adv-x="588" unicode="Υ"/>
    <glyph d="M206 697c30 0 49 23 49 50 0 28-21 50-48 50-28 0-50-23-50-50s20-50 49-50m183 0c31 0 50 23 50 50 0 28-21 50-48 50-29 0-50-23-50-50s20-50 48-50M11 609c88-20 182-118 222-299 9-41 14-86 14-136V0h88v173c0 52 8 98 18 138 46 174 157 270 231 298l-15 71c-45-7-106-43-153-93-49-53-101-137-117-245h-4c-13 106-53 190-104 247-46 54-118 87-165 91z" horiz-adv-x="588" unicode="Ϋ"/>
    <glyph d="M128 609c88-20 182-118 222-299 9-41 14-86 14-136V0h88v173c0 52 8 98 18 138 46 174 157 270 231 298l-15 71c-45-7-106-43-153-93-49-53-101-137-117-245h-4c-13 106-53 190-104 247-46 54-118 87-165 91M7 674 0 519h52l34 155z" horiz-adv-x="707" unicode="Ύ"/>
    <glyph d="M75 674V277C75 67 179-11 317-11c146 0 255 84 255 291v394h-88V274c0-148-65-214-164-214-90 0-157 64-157 214v400m162 198c-63 0-101-41-101-91 0-49 40-88 100-88 58 0 99 38 99 88 0 51-38 91-98 91m-3-36c30 0 49-24 49-53 0-30-19-53-48-53s-48 25-48 51c0 29 17 55 47 55z" horiz-adv-x="647" unicode="Ů"/>
    <glyph d="M75 674V277C75 67 179-11 317-11c146 0 255 84 255 291v394h-88V274c0-148-65-214-164-214-90 0-157 64-157 214v400m83 41c3 27 10 44 26 44 15 0 28-9 47-19 23-11 41-19 62-19 46 0 68 34 67 97h-46c-3-32-12-39-27-39-16 0-32 9-48 18-22 11-38 20-60 20-43 0-69-41-68-102z" horiz-adv-x="647" unicode="Ũ"/>
    <glyph d="m320 0 241 674h-93L354 341c-31-88-58-173-77-251h-2c-19 79-44 161-72 252L98 674H3L224 0z" horiz-adv-x="558" unicode="V"/>
    <glyph d="m277 0 96 351c25 87 41 153 52 220h2c9-68 23-134 44-220L556 0h91l191 674h-89l-89-340c-21-84-40-159-54-233h-2c-10 71-28 151-47 231l-82 342h-91l-90-340c-23-87-44-167-55-234h-2c-12 65-30 149-50 233l-80 341H15L186 0z" horiz-adv-x="846" unicode="W"/>
    <glyph d="m277 0 96 351c25 87 41 153 52 220h2c9-68 23-134 44-220L556 0h91l191 674h-89l-89-340c-21-84-40-159-54-233h-2c-10 71-28 151-47 231l-82 342h-91l-90-340c-23-87-44-167-55-234h-2c-12 65-30 149-50 233l-80 341H15L186 0m291 827-93-117h71l128 117z" horiz-adv-x="846" unicode="Ẃ"/>
    <glyph d="m277 0 96 351c25 87 41 153 52 220h2c9-68 23-134 44-220L556 0h91l191 674h-89l-89-340c-21-84-40-159-54-233h-2c-10 71-28 151-47 231l-82 342h-91l-90-340c-23-87-44-167-55-234h-2c-12 65-30 149-50 233l-80 341H15L186 0m204 824L288 710h71l64 69h2l63-69h74L457 824z" horiz-adv-x="846" unicode="Ŵ"/>
    <glyph d="m277 0 96 351c25 87 41 153 52 220h2c9-68 23-134 44-220L556 0h91l191 674h-89l-89-340c-21-84-40-159-54-233h-2c-10 71-28 151-47 231l-82 342h-91l-90-340c-23-87-44-167-55-234h-2c-12 65-30 149-50 233l-80 341H15L186 0m147 721c30 0 49 23 49 51s-20 50-48 50-49-23-49-50c0-28 20-51 48-51m185 0c31 0 50 23 50 51s-20 50-48 50c-29 0-50-23-50-50 0-28 20-51 48-51z" horiz-adv-x="846" unicode="Ẅ"/>
    <glyph d="m277 0 96 351c25 87 41 153 52 220h2c9-68 23-134 44-220L556 0h91l191 674h-89l-89-340c-21-84-40-159-54-233h-2c-10 71-28 151-47 231l-82 342h-91l-90-340c-23-87-44-167-55-234h-2c-12 65-30 149-50 233l-80 341H15L186 0m87 827 128-116h71l-93 116z" horiz-adv-x="846" unicode="Ẁ"/>
    <glyph d="M546 0 336 346l205 328H440l-91-158c-25-43-42-74-61-114h-3c-18 36-37 70-62 114l-89 158H33l198-333L25 0h100l81 148c34 59 54 95 73 134h2c21-39 42-76 77-133L445 0z" horiz-adv-x="571" unicode="X"/>
    <glyph d="M54 674v-72h440v72M87 385v-72h374v72M43 73V0h462v73z" horiz-adv-x="540" unicode="Ξ"/>
    <glyph d="M314 0v287l225 387h-98l-97-186c-26-51-50-95-68-139h-2c-21 47-42 88-67 139l-95 186H12l214-388V0z" horiz-adv-x="541" unicode="Y"/>
    <glyph d="M314 0v287l225 387h-98l-97-186c-26-51-50-95-68-139h-2c-21 47-42 88-67 139l-95 186H12l214-388V0m94 822-93-117h71l128 117z" horiz-adv-x="541" unicode="Ý"/>
    <glyph d="M314 0v287l225 387h-98l-97-186c-26-51-50-95-68-139h-2c-21 47-42 88-67 139l-95 186H12l214-388V0m10 824L134 710h71l64 69h2l63-69h74L303 824z" horiz-adv-x="541" unicode="Ŷ"/>
    <glyph d="M314 0v287l225 387h-98l-97-186c-26-51-50-95-68-139h-2c-21 47-42 88-67 139l-95 186H12l214-388V0m-40 714c30 0 49 23 49 51s-20 50-48 50-49-23-49-50c0-28 20-51 48-51m185 0c31 0 50 23 50 51s-20 50-48 50c-29 0-50-23-50-50 0-28 20-51 48-51z" horiz-adv-x="541" unicode="Ÿ"/>
    <glyph d="M314 0v287l225 387h-98l-97-186c-26-51-50-95-68-139h-2c-21 47-42 88-67 139l-95 186H12l214-388V0m-95 820 128-116h71l-93 116z" horiz-adv-x="541" unicode="Ỳ"/>
    <glyph d="M30 0h492v73H145v3l372 545v53H62v-73h341v-3L30 51z" horiz-adv-x="553" unicode="Z"/>
    <glyph d="M30 0h492v73H145v3l372 545v53H62v-73h341v-3L30 51m295 776-93-117h71l128 117z" horiz-adv-x="553" unicode="Ź"/>
    <glyph d="M30 0h492v73H145v3l372 545v53H62v-73h341v-3L30 51m290 659 103 114h-71l-63-69h-2l-64 69h-74l105-114z" horiz-adv-x="553" unicode="Ž"/>
    <glyph d="M30 0h492v73H145v3l372 545v53H62v-73h341v-3L30 51m250 669c28 0 49 24 49 51 0 26-21 50-48 50-28 0-50-24-50-50 0-27 21-51 49-51z" horiz-adv-x="553" unicode="Ż"/>
    <glyph d="M30 0h492v73H145v3l372 545v53H62v-73h341v-3L30 51z" horiz-adv-x="553" unicode="Ζ"/>
    <glyph d="M413 297c0 96-36 197-184 197-61 0-120-17-160-42l20-59c34 23 81 36 127 36 99 1 110-72 110-111v-10c-187 1-291-63-291-180C35 58 85-11 183-11c69 0 121 34 148 72h3l7-61h79c-5 33-7 74-7 116m-85 47c0-8-1-18-4-28-14-41-55-81-119-81-44 0-82 26-82 84 0 94 109 111 205 109z" horiz-adv-x="482" unicode="a"/>
    <glyph d="M413 297c0 96-36 197-184 197-61 0-120-17-160-42l20-59c34 23 81 36 127 36 99 1 110-72 110-111v-10c-187 1-291-63-291-180C35 58 85-11 183-11c69 0 121 34 148 72h3l7-61h79c-5 33-7 74-7 116m-85 47c0-8-1-18-4-28-14-41-55-81-119-81-44 0-82 26-82 84 0 94 109 111 205 109m-53 446-87-143h62l122 143z" horiz-adv-x="482" unicode="á"/>
    <glyph d="M413 297c0 96-36 197-184 197-61 0-120-17-160-42l20-59c34 23 81 36 127 36 99 1 110-72 110-111v-10c-187 1-291-63-291-180C35 58 85-11 183-11c69 0 121 34 148 72h3l7-61h79c-5 33-7 74-7 116m-85 47c0-8-1-18-4-28-14-41-55-81-119-81-44 0-82 26-82 84 0 94 109 111 205 109M117 682c0-63 36-125 124-125 75 0 124 50 124 125h-52c-3-34-25-69-73-69-40 0-65 30-71 69z" horiz-adv-x="482" unicode="ă"/>
    <glyph d="M413 297c0 96-36 197-184 197-61 0-120-17-160-42l20-59c34 23 81 36 127 36 99 1 110-72 110-111v-10c-187 1-291-63-291-180C35 58 85-11 183-11c69 0 121 34 148 72h3l7-61h79c-5 33-7 74-7 116m-85 47c0-8-1-18-4-28-14-41-55-81-119-81-44 0-82 26-82 84 0 94 109 111 205 109M205 693l-94-143h66l58 94h2l58-94h67l-96 143z" horiz-adv-x="482" unicode="â"/>
    <glyph d="m189 693-88-143h62l122 143z" horiz-adv-x="300" unicode="´"/>
    <glyph d="m198 827-93-117h71l128 117z" horiz-adv-x="300" unicode=""/>
    <glyph d="M413 297c0 96-36 197-184 197-61 0-120-17-160-42l20-59c34 23 81 36 127 36 99 1 110-72 110-111v-10c-187 1-291-63-291-180C35 58 85-11 183-11c69 0 121 34 148 72h3l7-61h79c-5 33-7 74-7 116m-85 47c0-8-1-18-4-28-14-41-55-81-119-81-44 0-82 26-82 84 0 94 109 111 205 109M148 570c30 0 50 24 50 51 0 29-21 51-48 51-29 0-51-23-51-51 0-27 21-51 49-51m185 0c30 0 50 24 50 51 0 29-21 51-49 51s-50-23-50-51c0-27 20-51 49-51z" horiz-adv-x="482" unicode="ä"/>
    <glyph d="M734 233c2 9 3 24 3 39 0 80-41 222-189 222-77 0-137-39-169-102h-2c-20 62-69 102-156 102-48 0-108-16-151-44l21-57c29 20 78 36 124 36 98 0 112-83 112-107v-20c-187 3-291-63-291-175C36 57 86-11 187-11c83 0 149 40 179 107h3C397 27 470-11 553-11c64 0 121 13 159 33l-16 62c-26-12-65-27-132-27-91 0-158 61-155 176m-80-61c0-12-2-24-5-35-14-45-54-84-117-83-46 0-84 29-84 80 0 95 113 111 206 109m80 53c3 55 42 136 130 136 89 0 116-87 114-136z" horiz-adv-x="773" unicode="æ"/>
    <glyph d="M734 233c2 9 3 24 3 39 0 80-41 222-189 222-77 0-137-39-169-102h-2c-20 62-69 102-156 102-48 0-108-16-151-44l21-57c29 20 78 36 124 36 98 0 112-83 112-107v-20c-187 3-291-63-291-175C36 57 86-11 187-11c83 0 149 40 179 107h3C397 27 470-11 553-11c64 0 121 13 159 33l-16 62c-26-12-65-27-132-27-91 0-158 61-155 176m-80-61c0-12-2-24-5-35-14-45-54-84-117-83-46 0-84 29-84 80 0 95 113 111 206 109m80 53c3 55 42 136 130 136 89 0 116-87 114-136M428 693l-87-143h62l122 143z" horiz-adv-x="773" unicode="ǽ"/>
    <glyph d="M413 297c0 96-36 197-184 197-61 0-120-17-160-42l20-59c34 23 81 36 127 36 99 1 110-72 110-111v-10c-187 1-291-63-291-180C35 58 85-11 183-11c69 0 121 34 148 72h3l7-61h79c-5 33-7 74-7 116m-85 47c0-8-1-18-4-28-14-41-55-81-119-81-44 0-82 26-82 84 0 94 109 111 205 109M95 693l122-143h62l-88 143z" horiz-adv-x="482" unicode="à"/>
    <glyph d="M416 484c-4-23-7-48-9-85h-4c-26 59-79 95-149 95-112 0-216-104-216-262C38 85 121-11 236-11c77 0 133 43 165 102h3c5-74 40-102 83-102 10 0 23 1 30 4l7 63c-34 1-48 24-48 81 0 130 8 296 13 347M127 235c0 109 57 190 138 190 64 0 112-59 124-123 4-17 4-33 4-53 0-27-1-46-6-68-15-63-68-122-129-122-84 0-131 84-131 174z" horiz-adv-x="551" unicode="α"/>
    <glyph d="m286 686-54-143h59l83 143m42-202c-4-23-7-48-9-85h-4c-26 59-79 95-149 95-112 0-216-104-216-262C38 85 121-11 236-11c77 0 133 43 165 102h3c5-74 40-102 83-102 10 0 23 1 30 4l7 63c-34 1-48 24-48 81 0 130 8 296 13 347M127 235c0 109 57 190 138 190 64 0 112-59 124-123 4-17 4-33 4-53 0-27-1-46-6-68-15-63-68-122-129-122-84 0-131 84-131 174z" horiz-adv-x="551" unicode="ά"/>
    <glyph d="M413 297c0 96-36 197-184 197-61 0-120-17-160-42l20-59c34 23 81 36 127 36 99 1 110-72 110-111v-10c-187 1-291-63-291-180C35 58 85-11 183-11c69 0 121 34 148 72h3l7-61h79c-5 33-7 74-7 116m-85 47c0-8-1-18-4-28-14-41-55-81-119-81-44 0-82 26-82 84 0 94 109 111 205 109M129 643v-57h225v57z" horiz-adv-x="482" unicode="ā"/>
    <glyph d="M602 0c-40 43-75 81-111 120 50 59 79 143 97 249h-80c-13-85-34-150-65-197-43 48-107 121-164 187v4c107 53 148 109 148 180 0 88-65 143-149 143-112 0-171-84-171-167 0-47 21-97 56-141v-3C86 333 31 270 31 178 31 77 107-11 238-11c75 0 139 23 197 76 26-26 44-46 63-65M254 55c-82 0-139 59-139 136 0 72 50 114 87 138 75-87 150-169 190-213-32-35-81-61-138-61m17 571c56 0 79-46 79-87 0-58-44-94-112-133-28 36-51 73-51 122 0 52 29 98 84 98z" horiz-adv-x="605" unicode="&amp;"/>
    <glyph d="M107 251c40 0 65 30 65 67 0 41-26 69-64 69-37 0-64-29-64-69 0-37 26-67 63-67z" horiz-adv-x="217" unicode="·"/>
    <glyph d="M413 297c0 96-36 197-184 197-61 0-120-17-160-42l20-59c34 23 81 36 127 36 99 1 110-72 110-111v-10c-187 1-291-63-291-180C35 58 85-11 183-11c69 0 121 34 148 72h3l7-58c-19-28-48-74-48-124 0-55 38-85 89-85 27 0 59 7 83 24l-14 46c-13-6-27-10-46-10-28 0-48 16-48 50 0 35 24 76 39 96h25c-6 32-8 71-8 116m-85 47c0-9-1-19-4-28-14-41-55-81-119-81-44 0-82 26-82 84 0 94 109 111 205 109z" horiz-adv-x="482" unicode="ą"/>
    <glyph d="M533 416c-25-26-70-59-116-59-50 0-84 22-114 34-32 14-69 37-127 37-63 0-121-39-153-77l35-42c27 29 71 59 117 59 50 0 84-22 114-34 33-15 70-37 129-37 62 0 120 38 151 78m-31-157c-26-29-70-59-117-59-49 0-83 22-113 34-33 13-70 36-128 36-62 0-121-38-153-76l35-43c27 29 72 59 117 59 51 0 85-22 115-34 32-13 70-36 127-36 62 0 121 38 153 79z" horiz-adv-x="596" unicode="≈"/>
    <glyph d="M413 297c0 96-36 197-184 197-61 0-120-17-160-42l20-59c34 23 81 36 127 36 99 1 110-72 110-111v-10c-187 1-291-63-291-180C35 58 85-11 183-11c69 0 121 34 148 72h3l7-61h79c-5 33-7 74-7 116m-85 47c0-8-1-18-4-28-15-41-55-81-119-81-44 0-82 26-82 84 0 94 109 111 205 109m-88 290c57 0 100 39 100 91 0 54-39 94-99 94-62 0-102-41-102-94 0-51 42-91 101-91m0 37c-30 0-50 27-50 54 0 31 18 57 49 57 32 0 52-25 52-56 0-30-20-55-51-55z" horiz-adv-x="482" unicode="å"/>
    <glyph d="M297 834 190 728h62l142 106m19-537c0 96-36 197-184 197-61 0-119-17-159-42l20-59c34 23 81 36 126 36 99 1 110-72 110-111v-10c-187 1-291-63-291-180C35 58 85-11 183-11c69 0 121 34 147 72h3l8-61h79c-5 33-7 74-7 116m-85 47c0-9-1-19-4-28-14-41-55-81-118-81-45 0-83 26-83 84 0 94 109 111 204 109m-86 273c56 0 100 39 100 91 0 54-40 94-99 94-63 0-102-41-102-94 0-51 41-91 101-91m-1 37c-29 0-49 27-49 54 0 30 18 57 48 57 33 0 53-25 53-56 0-30-21-55-52-55z" horiz-adv-x="482" unicode="ǻ"/>
    <glyph d="M536 189 330 650h-63L61 189h69l167 388h2l167-388z" horiz-adv-x="596" unicode="^"/>
    <glyph d="M109 210c1 60 23 85 59 85s73-21 120-44c69-32 105-44 145-44 62 0 119 40 114 151h-59c-1-55-18-84-54-84-37 0-74 18-124 42-68 32-100 45-142 45-69 0-122-51-119-151z" horiz-adv-x="596" unicode="~"/>
    <glyph d="m269 686-61-141h-2l-62 140-61-35 94-123v-2L30 544v-68l148 20v-3L83 371l57-36 64 141h2l61-140 63 36-96 120v3l151-19v68l-151-20v2l95 125z" horiz-adv-x="415" unicode="*"/>
    <glyph d="M448 255c-11-62-64-136-122-136-44 0-66 32-66 76 0 97 71 180 159 180 23 0 40-4 50-8m39-389c-41-23-94-35-151-35-148 0-257 104-257 271 0 203 137 333 300 333 155 0 242-105 242-251 0-115-57-184-108-182-33 1-45 36-30 112l34 181c-26 12-65 21-107 21-139 0-237-113-237-237 0-79 50-126 108-126 60 0 106 29 141 88h3c-2-62 35-88 75-88 93 0 177 88 177 238 0 167-116 290-290 290-222 0-365-179-365-385 0-193 139-313 303-313 67 0 123 11 178 40z" horiz-adv-x="737" unicode="@"/>
    <glyph d="M448 348c-11-62-64-136-122-136-44 0-66 32-66 76 0 97 71 180 159 180 23 0 40-4 50-8m39-389c-41-22-94-35-151-35-148 0-257 104-257 271 0 203 137 333 300 333 155 0 242-105 242-251 0-115-57-184-108-182-33 1-45 36-30 112l34 181c-26 12-65 21-107 21-139 0-237-113-237-237 0-79 50-126 108-126 60 0 106 29 141 88h3c-2-62 35-88 75-88 93 0 177 88 177 238 0 167-116 290-290 290-222 0-365-179-365-385C43 108 182-12 346-12c67 0 123 11 178 40z" horiz-adv-x="737" unicode=""/>
    <glyph d="M413 297c0 96-36 197-184 197-61 0-120-17-160-42l20-59c34 23 81 36 127 36 99 1 110-72 110-111v-10c-187 1-291-63-291-180C35 58 85-11 183-11c69 0 121 34 148 72h3l7-61h79c-5 33-7 74-7 116m-85 47c0-8-1-18-4-28-14-41-55-81-119-81-44 0-82 26-82 84 0 94 109 111 205 109M163 567c2 28 10 45 26 45 12 0 23-6 43-18 21-11 40-21 62-21 47 0 69 35 68 101h-47c-2-33-12-42-28-42-12 0-26 8-42 17-23 12-40 22-62 22-43 0-70-39-68-104z" horiz-adv-x="482" unicode="ã"/>
    <glyph d="M73 125c0-43-2-92-4-125h75l5 79h2c37-63 93-90 163-90 108 0 218 86 218 259 0 146-84 246-205 246-78 0-134-34-165-88h-2v304H73m87-430c0 14 2 26 5 37 18 66 74 108 133 108 95 0 145-83 145-180 0-111-54-186-147-186-64 0-116 42-132 103-3 10-4 21-4 32z" horiz-adv-x="569" unicode="b"/>
    <glyph d="M342-39 70 686H2L274-39z" horiz-adv-x="341" unicode="\"/>
    <glyph d="M86 750V-250h67V750z" horiz-adv-x="239" unicode="|"/>
    <glyph d="M158 50c38-39 88-61 156-61 106 0 208 73 208 207 0 111-72 175-148 190v5c46 22 90 79 90 156 0 104-76 174-176 174-64 0-109-21-142-53-38-37-75-98-75-236V-28c0-70 3-138 15-170h82c-10 41-12 125-12 181v67m0 392c0 139 43 209 124 209 59 0 102-46 102-118 0-63-38-122-114-128-5-1-11-1-17-1v-60h27c89-3 156-52 156-149 0-79-57-138-137-138-69 0-119 43-141 80z" horiz-adv-x="560" unicode="β"/>
    <glyph d="M28 263c71 0 81-43 81-75 0-26-4-53-7-81-5-27-9-55-9-82 0-101 63-137 145-137h21v55h-17c-56 1-80 31-80 87 0 24 4 48 7 72 4 25 8 50 8 77 0 64-28 97-73 109v2c45 12 74 44 73 108 0 27-4 51-8 76-3 24-7 48-7 71 0 54 21 85 80 86h17v55h-20c-85 0-146-39-146-131 0-27 4-55 8-84 4-27 8-55 8-83-1-35-11-74-81-74z" horiz-adv-x="284" unicode="{"/>
    <glyph d="M28 302c71 0 81-43 81-75 0-26-4-53-7-81-5-27-9-55-9-82C93-37 156-73 238-73h21v55h-17c-56 1-80 31-80 87 0 24 4 48 7 72 4 25 8 50 8 77 0 64-28 98-73 109v2c45 12 74 44 73 108 0 27-4 51-8 76-3 24-7 48-7 71 0 54 21 85 80 86h17v55h-20c-85 0-146-39-146-131 0-27 4-55 8-83s8-56 8-84c-1-35-11-74-81-74z" horiz-adv-x="284" unicode=""/>
    <glyph d="M256 314c-71 0-81 39-81 74 0 28 4 56 8 83 4 29 8 57 8 84 0 92-61 131-146 131H25v-55h17c59-1 80-32 80-86 0-23-4-47-7-71-4-25-8-49-8-76 0-64 28-96 73-108v-2c-45-12-74-45-73-109 0-27 4-52 8-77 3-24 7-48 7-72 0-56-24-86-80-87H25v-55h21c82 0 145 36 145 137 0 27-4 55-8 82-4 28-8 55-8 81 1 32 11 75 81 75z" horiz-adv-x="284" unicode="}"/>
    <glyph d="M256 353c-71 0-81 39-81 74 0 28 4 56 8 84s8 56 8 83c0 92-61 131-146 131H25v-55h17c59-1 80-32 80-86 0-23-4-47-7-71-4-25-8-49-8-76 0-64 28-96 73-108v-2c-45-11-74-45-73-109 0-27 4-52 8-77 3-24 7-48 7-72 0-56-24-86-80-87H25v-55h21c82 0 145 36 145 137 0 27-4 55-8 82-4 28-8 55-8 81 1 32 11 75 81 75z" horiz-adv-x="284" unicode=""/>
    <glyph d="M264-112v55H150v688h114v55H81v-798z" horiz-adv-x="284" unicode="["/>
    <glyph d="M264-73v55H150v688h114v55H81V-73z" horiz-adv-x="284" unicode=""/>
    <glyph d="M20 686v-55h114V-57H20v-55h183v798z" horiz-adv-x="284" unicode="]"/>
    <glyph d="M20 725v-55h114V-18H20v-55h183v798z" horiz-adv-x="284" unicode=""/>
    <glyph d="M26 682c0-63 36-125 124-125 75 0 124 50 124 125h-52c-3-34-25-69-73-69-40 0-65 30-71 69z" horiz-adv-x="300" unicode="˘"/>
    <glyph d="M26 832c2-60 38-106 123-106 86 0 123 47 125 106h-51c-5-26-24-49-73-49s-67 26-72 49z" horiz-adv-x="300" unicode=""/>
    <glyph d="M21 681c4-68 38-124 126-124 77 0 128 43 133 124h-63c-5-43-25-76-68-76-40 0-61 33-64 76z" horiz-adv-x="301" unicode=""/>
    <glyph d="M22 834c5-66 44-108 126-108 85 0 125 41 130 108h-67c-4-33-15-62-61-62-47 0-57 31-61 62z" horiz-adv-x="300" unicode=""/>
    <glyph d="m192 774-79-132h53l111 132M21 657c1-62 41-124 129-124 75 0 128 49 129 124h-50c-3-34-28-69-79-69-44 0-73 30-79 69z" horiz-adv-x="300" unicode=""/>
    <glyph d="M29 802c7-55 45-103 123-103 79 0 120 50 127 103h-47c-8-27-27-48-79-48-49 0-70 24-77 48m115 94-74-104h54l112 104z" horiz-adv-x="300" unicode=""/>
    <glyph d="m22 773 110-132h54l-80 132M17 657c1-63 41-125 129-125 76 0 128 50 129 125h-49c-3-34-29-69-80-69-44 0-73 30-79 69z" horiz-adv-x="300" unicode=""/>
    <glyph d="m29 896 112-104h54l-74 104m-91-94c7-55 45-103 123-103 79 0 120 50 126 103h-46c-8-27-27-48-79-48-49 0-70 24-77 48z" horiz-adv-x="300" unicode=""/>
    <glyph d="M163 634c26 45 69 54 69 103 0 39-35 71-80 71-49 0-77-30-95-64l32-20c11 17 27 36 47 36s34-14 34-32c0-32-35-41-51-83m-98 12c1-63 41-124 129-124 75 0 127 49 129 124h-50c-3-34-28-69-79-69-44 0-73 30-79 69z" horiz-adv-x="300" unicode=""/>
    <glyph d="M168 778c26 45 69 55 69 104 0 39-34 70-79 70-49 0-78-29-96-64l32-19c12 16 28 35 48 35 19 0 34-13 34-32 0-31-36-41-51-82m-94 12c6-55 44-103 122-103 79 0 120 50 126 103h-46c-8-27-27-49-79-49-49 0-70 25-76 49z" horiz-adv-x="300" unicode=""/>
    <glyph d="M77 697c2 15 9 31 25 31 12 0 23-6 43-17 21-11 40-21 62-21 47 0 69 34 68 96h-47c-2-32-12-40-28-40-12 0-26 7-42 16-24 12-41 21-62 21-43 0-66-37-68-86m-5-40c1-63 38-124 127-124 76 0 126 49 128 124h-50c-3-34-28-71-79-71-43 0-71 32-77 71z" horiz-adv-x="300" unicode=""/>
    <glyph d="M78 836c3 15 9 31 25 31 12 0 23-6 43-17 21-11 39-21 61-21 47 0 69 34 68 96h-47c-2-32-12-40-27-40-13 0-26 7-42 16-24 12-41 21-62 21-43 0-66-36-68-86m-3-34c7-55 45-103 123-103s119 50 126 103h-47c-8-27-27-48-78-48-49 0-70 24-77 48z" horiz-adv-x="300" unicode=""/>
    <glyph d="M86 174v-350h67v350M86 674V324h67v350z" horiz-adv-x="239" unicode="¦"/>
    <glyph d="M140 157c59 0 106 47 106 105 0 59-47 105-105 105S35 320 36 262c0-59 47-105 104-105z" horiz-adv-x="282" unicode="•"/>
    <glyph d="M403 83c-25-11-58-23-108-23-96 0-168 69-168 181 0 100 60 183 171 183 48 0 81-12 102-23l20 67c-24 13-70 26-122 26-158 0-260-109-260-258C38 88 133-11 279-11c65 0 116 17 139 28z" horiz-adv-x="448" unicode="c"/>
    <glyph d="M403 83c-25-11-58-23-108-23-96 0-168 69-168 181 0 100 60 183 171 183 48 0 81-12 102-23l20 67c-24 13-70 26-122 26-158 0-260-109-260-258C38 88 133-11 279-11c65 0 116 17 139 28M302 693l-88-143h62l122 143z" horiz-adv-x="448" unicode="ć"/>
    <glyph d="m183 550 94 143h-66l-59-95h-2l-59 95H24l96-143z" horiz-adv-x="300" unicode="ˇ"/>
    <glyph d="m185 710 102 114h-71l-63-69h-2l-64 69H13l105-114z" horiz-adv-x="300" unicode=""/>
    <glyph d="M403 83c-25-11-58-23-108-23-96 0-168 69-168 181 0 100 60 183 171 183 48 0 81-12 102-23l20 67c-24 13-70 26-122 26-158 0-260-109-260-258C38 88 133-11 279-11c65 0 116 17 139 28M294 550l94 143h-66l-59-95h-2l-59 95h-67l96-143z" horiz-adv-x="448" unicode="č"/>
    <glyph d="M403 84c-24-11-58-23-108-23-96 0-168 69-168 180 0 101 60 183 171 183 48 0 81-12 102-23l20 67c-24 13-70 26-122 26-158 0-260-109-260-257C38 103 117 8 240-7l-42-77c47-5 77-16 78-42 0-24-20-32-43-32-20 0-40 5-55 14l-15-45c19-11 47-17 70-17 54 0 104 23 104 83 0 41-33 66-70 73l25 40c60 1 106 18 126 28z" horiz-adv-x="447" unicode="ç"/>
    <glyph d="M403 83c-25-11-58-23-108-23-96 0-168 69-168 181 0 100 60 183 171 183 48 0 81-12 102-23l20 67c-24 13-70 26-122 26-158 0-260-109-260-258C38 88 133-11 279-11c65 0 116 17 139 28M229 693l-94-143h66l57 94h2l59-94h67l-96 143z" horiz-adv-x="448" unicode="ĉ"/>
    <glyph d="M403 83c-25-11-58-23-108-23-96 0-168 69-168 181 0 100 60 183 171 183 48 0 81-12 102-23l20 67c-24 13-70 26-122 26-158 0-260-109-260-258C38 88 133-11 279-11c65 0 116 17 139 28M264 570c30 0 50 24 50 51 0 29-21 52-49 52s-51-23-51-52c0-27 21-51 50-51z" horiz-adv-x="448" unicode="ċ"/>
    <glyph d="M135 3 88-81c47-4 78-16 78-42 1-23-21-31-43-31-17 0-37 5-54 14l-15-43c17-10 44-17 68-17 56 0 105 22 105 81 0 39-34 65-70 69l33 53z" horiz-adv-x="300" unicode="¸"/>
    <glyph d="M137 2 90-84c47-5 78-17 78-43 0-22-19-31-42-31-22 0-40 6-55 14l-15-45c18-10 45-17 71-17 52 0 103 23 103 81 0 41-32 68-70 74l31 53z" horiz-adv-x="300" unicode=""/>
    <glyph d="M331-14V86c49 3 91 18 110 29l-15 64c-24-12-60-25-114-25-88 0-157 65-157 175 0 99 62 179 160 179 50 0 84-13 105-25l20 67c-24 12-64 24-109 25v98h-63V573C146 553 67 455 67 326c0-73 22-131 57-169 36-39 80-63 144-70V-14z" horiz-adv-x="513" unicode="¢"/>
    <glyph d="M206-8v59c29 2 53 10 66 17l-10 47c-15-6-36-13-68-13-50 0-91 34-91 97 0 56 36 97 93 97 29 0 48-7 61-14l13 50c-16 7-39 14-64 14v57h-46v-58C83 332 36 271 36 195c0-41 13-76 34-99 22-24 50-39 90-44V-8z" horiz-adv-x="315" unicode=""/>
    <glyph d="M206-155v59c29 2 53 11 66 17l-10 47c-15-6-36-13-68-13-50 0-91 34-91 97 0 56 36 97 93 97 29 0 48-7 61-14l13 50c-16 7-39 14-64 14v57h-46v-58C83 185 36 124 36 48c0-41 13-76 34-99 22-24 50-39 90-44v-60z" horiz-adv-x="315" unicode=""/>
    <glyph d="M206 258v59c29 2 53 10 66 17l-10 47c-15-6-36-13-68-13-50 0-91 34-91 97 0 56 36 97 93 97 29 0 48-7 61-14l13 50c-16 7-39 14-64 14v57h-46v-58C83 598 36 537 36 461c0-41 13-76 34-99 22-24 50-39 90-44v-60z" horiz-adv-x="315" unicode=""/>
    <glyph d="M206 435v59c29 2 53 10 66 17l-10 47c-15-6-36-13-68-13-50 0-91 34-91 96 0 56 36 97 93 97 29 0 48-7 61-14l13 50c-16 7-39 14-64 14v57h-46v-58C83 774 36 714 36 638c0-41 13-76 34-99 22-24 50-39 90-44v-60z" horiz-adv-x="315" unicode=""/>
    <glyph d="M403 129c-21-10-55-20-102-20-75 0-137 47-137 139 0 84 57 141 141 141 41 0 74-7 94-18l16 60c-20 9-58 19-98 20v66h-55v-68C153 433 81 352 81 244c0-114 73-185 181-198v-72h55v72c44 2 83 15 100 24z" horiz-adv-x="530" unicode=""/>
    <glyph d="m18 484 166-328L11-190l75-23 91 193c18 39 33 74 46 103l4 1 144-297 82 22-176 348 170 327h-85l-73-154c-20-42-36-75-50-107h-4L112 484z" horiz-adv-x="457" unicode="χ"/>
    <glyph d="M119 693 25 550h66l58 94h2l58-94h67l-96 143z" horiz-adv-x="300" unicode="ˆ"/>
    <glyph d="M115 824 13 710h71l64 69h2l63-69h74L182 824z" horiz-adv-x="300" unicode=""/>
    <glyph d="M82 562c5 43 25 76 68 76 40 0 60-33 64-76h64c-4 69-38 124-126 124-77 0-129-42-133-124z" horiz-adv-x="300" unicode=""/>
    <glyph d="M278 726c-4 62-44 105-126 105-84 0-125-42-130-105l67-1c4 30 15 60 61 60 47 0 57-32 61-60z" horiz-adv-x="300" unicode=""/>
    <glyph d="M117 693 33 550h64l51 94h3l50-94h67l-86 143m127 81-69-131h51l99 131z" horiz-adv-x="300" unicode=""/>
    <glyph d="M121 823 29 709h68l55 70h2l55-70h70l-94 114m130 76-84-105h52l121 105z" horiz-adv-x="300" unicode=""/>
    <glyph d="m189 774 93-131h51l-64 131m-151-81L33 550h65l50 94h3l50-94h67l-86 143z" horiz-adv-x="300" unicode=""/>
    <glyph d="m180 881 110-105h53l-72 105m-153-58L25 709h68l55 70h2l55-70h70l-94 114z" horiz-adv-x="300" unicode=""/>
    <glyph d="M118 693 33 550h65l50 94h3l50-94h67l-86 143m115-59c27 45 69 54 69 103 0 39-35 71-80 71-48 0-77-29-95-64l32-20c11 17 28 36 48 36 19 0 33-13 33-32 0-32-35-41-51-82z" horiz-adv-x="300" unicode=""/>
    <glyph d="M120 824 28 710h67l55 70h2l55-70h70l-94 114m119-70c26 46 69 56 69 104 0 39-34 70-80 70-48 0-77-29-95-64l33-19c11 17 27 37 49 37 19 0 33-14 33-33 0-32-36-42-51-83z" horiz-adv-x="300" unicode=""/>
    <glyph d="M118 667 28 550h67l54 73h2l53-73h69l-91 117M78 679c2 23 10 39 26 39 12 0 23-6 43-16 21-11 39-21 61-21 47 0 69 33 68 96h-47c-2-32-11-41-27-41-12 0-26 8-42 16-24 12-41 22-62 22-43 0-69-38-68-95z" horiz-adv-x="300" unicode=""/>
    <glyph d="M116 824 14 710h71l64 69h2l63-69h74L183 824M79 837c1 24 10 40 25 40 12 0 24-6 44-17s39-21 60-21c47 0 70 34 68 96h-46c-2-32-12-41-28-41-12 0-26 8-42 16-23 12-40 22-62 22-42 0-69-38-68-95z" horiz-adv-x="300" unicode=""/>
    <glyph d="M111 342c37 0 60 27 60 62 0 37-23 63-59 63-34 0-59-26-59-63 0-35 24-62 58-62m0-353c37 0 60 27 60 62 0 37-23 63-59 63-34 0-59-26-59-63 0-35 24-62 58-62z" horiz-adv-x="207" unicode=":"/>
    <glyph d="M78-117c28 47 72 158 96 243l-98-10C65 43 38-64 16-124z" horiz-adv-x="207" unicode=","/>
    <glyph d="M48-66C70-30 96 34 113 90l-74-6C32 35 16-27 0-71z" horiz-adv-x="131" unicode=""/>
    <glyph d="M48-213c22 36 48 100 65 156l-74-6c-7-49-23-111-39-155z" horiz-adv-x="131" unicode=""/>
    <glyph d="M48 200c22 36 48 100 65 156l-74-6c-7-49-23-111-39-155z" horiz-adv-x="131" unicode=""/>
    <glyph d="M48 376c22 36 48 100 65 156l-74-6c-7-49-23-111-39-155z" horiz-adv-x="131" unicode=""/>
    <glyph d="M341 648C170 648 36 510 36 340 36 168 170 30 340 30c169 0 301 138 301 310 0 170-132 308-300 308m-2-41c142 0 252-118 252-267 0-152-110-271-251-269C196 71 86 188 86 337c0 152 110 270 253 270m135-114c-14 12-58 27-110 27-101 0-191-72-191-186 0-101 67-181 183-181 42 0 88 8 123 31l-12 38c-23-15-61-26-101-26-92 0-141 63-141 141 0 80 46 140 140 140 47 0 84-16 97-23z" horiz-adv-x="677" unicode="©"/>
    <glyph d="M257 534c-45 0-87-16-116-41l-68 76-45-46 76-71c-22-28-39-71-39-123 0-50 17-94 37-121l-72-70 43-44 67 74c27-25 73-40 114-40 40 0 87 14 117 42l69-76 44 44-75 74c19 25 35 68 35 122 0 49-15 91-35 118l79 71-45 46-71-75c-27 24-69 40-115 40m-3-63c78 0 119-68 119-138 0-103-63-142-119-142-52 0-118 42-118 139 0 78 45 141 118 141z" horiz-adv-x="513" unicode="¤"/>
    <glyph d="M403 710V421h-2c-22 38-71 73-146 73-117 0-218-98-217-259C38 88 129-11 246-11c79 0 137 41 163 95h3l4-84h78c-2 33-4 82-4 125v585m-87-507c0-14-1-26-4-38-16-65-70-105-129-105-94 0-143 81-143 179 0 106 54 186 145 186 66 0 114-46 127-101 3-11 4-26 4-37z" horiz-adv-x="564" unicode="d"/>
    <glyph d="m209 674 8-211-174 7v-72l174 8-8-456h82l-8 456 174-8v72l-174-7 8 211z" horiz-adv-x="500" unicode="†"/>
    <glyph d="m210 674 6-201-172 7v-72l172 8V212l-172 8v-72l172 7-6-205h81l-6 205 172-7v72l-172-8v204l172-8v72l-172-7 6 201z" horiz-adv-x="500" unicode="‡"/>
    <glyph d="M403 710V421h-2c-22 38-71 73-146 73-117 0-218-98-217-259C38 88 129-11 246-11c79 0 137 41 163 95h3l4-84h78c-2 33-4 82-4 125v585m-87-507c0-14-1-26-4-38-16-65-70-105-129-105-94 0-143 81-143 179 0 106 54 186 145 186 66 0 114-46 127-101 3-11 4-26 4-37m169 234c15 12 67 50 67 125 0 33-18 62-36 73l-63-14c17-15 31-40 31-65 0-41-20-71-36-89z" horiz-adv-x="574" unicode="ď"/>
    <glyph d="M568 552v55h-78v103h-87V607H206v-55h197V421h-2c-22 38-71 73-146 73-117 0-218-98-217-259C38 88 129-11 246-11c79 0 137 41 163 95h3l4-84h78c-2 33-4 82-4 125v427m-87-349c0-14-1-26-4-38-16-65-70-105-129-105-94 0-143 81-143 179 0 106 54 186 145 186 66 0 114-46 127-101 3-11 4-26 4-37z" horiz-adv-x="564" unicode="đ"/>
    <glyph d="M163 686c-75 0-134-58-134-135 0-70 53-129 131-129 69 0 134 53 134 134 0 68-49 130-131 130m-3-47c58 0 80-47 80-84 0-49-33-86-79-86-45 0-78 36-78 82 0 43 26 88 77 88z" horiz-adv-x="318" unicode="°"/>
    <glyph d="M466 673c-28 23-90 48-160 48-114 0-169-60-169-113 0-46 39-81 62-100l22-18v-5C123 439 38 356 38 233 38 77 148-11 273-11c131 0 235 97 235 247 0 96-48 166-128 228l-82 65c-46 35-72 54-72 81 0 24 27 45 82 45s111-25 132-41M327 402c62-48 93-104 93-172 0-110-65-175-142-175-76 0-151 65-151 178 0 106 70 171 146 211z" horiz-adv-x="546" unicode="δ"/>
    <glyph d="M56 570c30 0 50 24 50 51 0 29-21 51-48 51-29 0-51-23-51-51 0-27 21-51 49-51m186 0c30 0 50 24 50 51 0 29-21 51-49 51s-50-23-50-51c0-27 20-51 49-51z" horiz-adv-x="300" unicode="¨"/>
    <glyph d="M57 721c30 0 49 23 49 51s-20 50-48 50-49-23-49-50c0-28 20-51 48-51m185 0c31 0 50 23 50 51s-20 50-48 50c-29 0-50-23-50-50 0-28 20-51 48-51z" horiz-adv-x="300" unicode=""/>
    <glyph d="M23 573c29 0 49 21 49 49s-20 49-47 49c-28 0-49-22-49-49 0-26 20-49 47-49m246 0c30 0 50 21 50 49s-20 49-47 49c-28 0-49-22-49-49 0-26 19-49 46-49M151 701 74 558h58l111 143z" horiz-adv-x="301" unicode=""/>
    <glyph d="M13 721c29 0 49 21 49 49s-20 50-47 50-48-22-48-50c0-26 19-49 46-49m273 0c30 0 50 21 50 49s-20 50-47 50-48-22-48-50c0-26 19-49 45-49M142 828 61 711h67l116 117z" horiz-adv-x="301" unicode=""/>
    <glyph d="M27 573c29 0 49 21 49 49s-20 49-47 49c-28 0-49-22-49-49 0-26 20-49 47-49m241 0c30 0 50 21 50 49s-20 49-47 49c-28 0-49-22-49-49 0-26 19-49 46-49M56 701l112-143h58l-78 143z" horiz-adv-x="301" unicode=""/>
    <glyph d="M12 721c29 0 49 21 49 49s-20 50-47 50-48-22-48-50c0-26 19-49 46-49m274 0c30 0 50 21 50 49s-20 50-47 50-48-22-48-50c0-26 19-49 45-49M56 828l117-117h67l-81 117z" horiz-adv-x="301" unicode=""/>
    <glyph d="m152 710-21-157h48l49 157M50 573c28 0 47 22 47 47 0 27-20 48-45 48-27 0-48-21-48-48 0-25 19-47 46-47m241 0c29 0 48 22 48 47 0 27-20 48-46 48s-47-21-47-48c0-25 19-47 45-47z" horiz-adv-x="346" unicode="΅"/>
    <glyph d="M297 387c33 0 54 24 54 55 0 33-21 56-53 56-31 0-53-23-53-56 0-31 21-55 52-55m259-150v60H40v-60M297 36c33 0 54 24 54 55 0 33-21 56-53 56-31 0-53-23-53-56 0-31 21-55 52-55z" horiz-adv-x="596" unicode="÷"/>
    <glyph d="M281-85V19c103 16 158 90 158 170 0 89-52 140-155 182-87 37-124 63-124 114 0 41 29 87 106 87 64 0 105-23 126-35l25 66c-30 17-71 33-130 35v97h-63V635c-91-15-150-78-150-161 0-87 63-134 165-174 74-30 113-64 113-119 0-57-48-98-119-98-56 0-108 20-143 43L66 59c35-25 94-43 152-44V-85z" horiz-adv-x="513" unicode="$"/>
    <glyph d="M179-51v62c66 10 101 55 101 104 0 54-31 86-98 111-57 21-76 34-76 61 0 22 15 46 61 46 41 0 69-14 82-21l16 49c-18 10-46 20-83 21v56h-45v-59c-61-10-97-49-97-100 0-55 39-82 105-106 48-18 69-34 69-64s-27-51-69-51c-37 0-70 12-94 27L35 35C58 20 96 9 134 8v-59z" horiz-adv-x="317" unicode=""/>
    <glyph d="M179-198v62c66 10 101 55 101 104 0 54-31 86-98 111-57 21-76 34-76 61 0 22 15 46 61 46 41 0 69-14 82-21l16 49c-18 10-46 20-83 21v56h-45v-59c-61-10-97-49-97-100 0-55 39-82 105-106 48-18 69-34 69-64s-27-51-69-51c-37 0-70 12-94 27l-16-50c23-15 61-26 99-27v-59z" horiz-adv-x="317" unicode=""/>
    <glyph d="M179 215v62c66 10 101 55 101 104 0 54-31 86-98 111-57 21-76 34-76 61 0 22 15 46 61 46 41 0 69-14 82-21l16 49c-18 10-46 20-83 21v56h-45v-59c-61-10-97-49-97-100 0-55 39-82 105-106 48-18 69-34 69-64s-27-51-69-51c-37 0-70 12-94 27l-16-50c23-15 61-26 99-27v-59z" horiz-adv-x="317" unicode=""/>
    <glyph d="M179 391v62c66 10 101 55 101 104 0 54-31 86-98 111-57 21-76 34-76 61 0 22 15 46 61 46 41 0 69-14 82-21l16 49c-18 10-46 20-83 21v56h-45v-59c-61-10-97-49-97-100 0-55 39-82 105-106 48-18 69-34 69-64s-27-51-69-51c-37 0-70 12-94 27l-16-50c23-15 61-26 99-27v-59z" horiz-adv-x="317" unicode=""/>
    <glyph d="M294-81V1c96 14 150 75 150 138 0 65-46 108-147 141-86 28-109 47-109 82 0 37 42 62 97 62 47 0 92-16 116-30l23 60c-25 14-69 29-123 31v83h-57v-86c-85-10-143-59-143-126s50-103 152-137c71-24 101-45 101-84 0-45-49-72-107-72-48 0-105 16-133 36L90 39c34-23 94-39 147-40v-80z" horiz-adv-x="530" unicode=""/>
    <glyph d="M89 98V39h337v59m-80 566v-67H220v-49h126v-88h-2c-18 30-55 52-108 52-93 0-169-70-169-185 0-104 69-174 159-174 60 0 104 27 125 65h2l3-57h69c-2 23-3 58-3 88v299h62v49h-62v67m-76-354c0-8-1-19-4-26-11-44-51-72-95-72-65 0-100 53-100 118 0 71 38 123 103 123 47 0 84-32 93-69 2-7 3-18 3-27z" horiz-adv-x="513" unicode="₫"/>
    <glyph d="M346 664v-67H220v-49h126v-88h-2c-18 30-55 52-108 52-93 0-169-70-168-185 0-104 68-174 158-174 60 0 104 27 125 65h2l3-57h69c-2 23-3 58-3 88v299h62v49h-62v67m-76-354c0-8-1-19-4-26-11-44-51-72-95-72-65 0-99 53-99 118 0 71 38 123 102 123 47 0 84-32 93-69 2-7 3-18 3-27z" horiz-adv-x="513" unicode=""/>
    <glyph d="M139 570c30 0 50 24 50 51 0 29-21 52-49 52s-51-23-51-52c0-27 21-51 50-51z" horiz-adv-x="300" unicode="˙"/>
    <glyph d="M150 721c28 0 49 24 49 51 0 26-21 50-48 50-28 0-50-24-50-50 0-27 21-51 49-51z" horiz-adv-x="300" unicode=""/>
    <glyph d="M161 0v484H73V0z" horiz-adv-x="234" unicode="ı"/>
    <glyph d="M462 226c2 10 3 23 3 41 0 89-41 227-200 227-141 0-227-114-227-260S127-11 276-11c77 0 131 17 162 31l-16 63c-32-14-71-25-134-25-89 0-164 49-166 168m1 63c7 61 45 142 135 142 99 0 123-87 122-142z" horiz-adv-x="501" unicode="e"/>
    <glyph d="M462 226c2 10 3 23 3 41 0 89-41 227-200 227-141 0-227-114-227-260S127-11 276-11c77 0 131 17 162 31l-16 63c-32-14-71-25-134-25-89 0-164 49-166 168m1 63c7 61 45 142 135 142 99 0 123-87 122-142m-76 404-88-143h62l122 143z" horiz-adv-x="501" unicode="é"/>
    <glyph d="M462 226c2 10 3 23 3 41 0 89-41 227-200 227-141 0-227-114-227-260S127-11 276-11c77 0 131 17 162 31l-16 63c-32-14-71-25-134-25-89 0-164 49-166 168m1 63c7 61 45 142 135 142 99 0 123-87 122-142M129 682c0-63 36-125 124-125 75 0 124 50 124 125h-52c-3-34-25-69-73-69-40 0-65 30-71 69z" horiz-adv-x="501" unicode="ĕ"/>
    <glyph d="M462 226c2 10 3 23 3 41 0 89-41 227-200 227-141 0-227-114-227-260S127-11 276-11c77 0 131 17 162 31l-16 63c-32-14-71-25-134-25-89 0-164 49-166 168m1 63c7 61 45 142 135 142 99 0 123-87 122-142m-95 261 94 143h-66l-59-95h-2l-59 95h-67l96-143z" horiz-adv-x="501" unicode="ě"/>
    <glyph d="M462 226c2 10 3 23 3 41 0 89-41 227-200 227-141 0-227-114-227-260S127-11 276-11c77 0 131 17 162 31l-16 63c-32-14-71-25-134-25-89 0-164 49-166 168m1 63c7 61 45 142 135 142 99 0 123-87 122-142M231 693l-94-143h66l58 94h2l58-94h67l-96 143z" horiz-adv-x="501" unicode="ê"/>
    <glyph d="M462 226c2 10 3 23 3 41 0 89-41 227-200 227-141 0-227-114-227-260S127-11 276-11c77 0 131 17 162 31l-16 63c-32-14-71-25-134-25-89 0-164 49-166 168m1 63c7 61 45 142 135 142 99 0 123-87 122-142M175 570c30 0 50 24 50 51 0 29-21 51-48 51-29 0-51-23-51-51 0-27 21-51 49-51m185 0c30 0 50 24 50 51 0 29-21 51-49 51s-50-23-50-51c0-27 20-51 49-51z" horiz-adv-x="501" unicode="ë"/>
    <glyph d="M462 226c2 10 3 23 3 41 0 89-41 227-200 227-141 0-227-114-227-260S127-11 276-11c77 0 131 17 162 31l-16 63c-32-14-71-25-134-25-89 0-164 49-166 168m1 63c7 61 45 142 135 142 99 0 123-87 122-142M254 570c30 0 50 24 50 51 0 29-21 52-49 52s-51-23-51-52c0-27 21-51 50-51z" horiz-adv-x="501" unicode="ė"/>
    <glyph d="M462 226c2 10 3 23 3 41 0 89-41 227-200 227-141 0-227-114-227-260S127-11 276-11c77 0 131 17 162 31l-16 63c-32-14-71-25-134-25-89 0-164 49-166 168m1 63c7 61 45 142 135 142 99 0 123-87 122-142M135 693l122-143h62l-88 143z" horiz-adv-x="501" unicode="è"/>
    <glyph d="M166 339C86 305 37 246 37 164c0-95 82-175 218-175 124 0 221 75 221 189 0 78-50 136-131 168v3c80 37 108 97 108 152 0 82-64 160-190 160-115 0-202-70-202-173 0-56 31-112 104-146m92-289c-83 0-133 58-130 123 0 62 41 113 117 135 88-25 143-64 143-142 0-67-51-116-130-116m1 545c79 0 110-54 110-106 0-59-43-99-99-118-75 20-125 55-124 120 0 56 40 104 113 104z" horiz-adv-x="513" unicode="8"/>
    <glyph d="M168 395c-74 0-130-42-130-105 0-34 20-67 63-86v-3c-48-20-77-52-77-100C24 46 72-5 162-5c83 0 142 46 142 115 0 48-33 81-78 98v2c45 20 63 55 63 88 0 50-40 97-121 97m-4-353c-46 0-73 32-73 67 0 33 23 60 66 72 47-13 79-33 79-77 0-35-28-62-72-62m0 307c44 0 62-30 62-58 0-32-24-53-55-63-43 11-70 31-70 65 0 30 22 56 63 56z" horiz-adv-x="328" unicode=""/>
    <glyph d="M166 339C86 305 37 246 37 164c0-95 82-175 218-175 124 0 221 75 221 189 0 78-50 136-131 168v3c80 37 108 97 108 152 0 82-64 160-190 160-115 0-202-70-202-173 0-56 31-112 104-146m92-289c-83 0-133 58-130 123 0 62 41 113 117 135 88-25 143-64 143-142 0-67-51-116-130-116m1 545c79 0 110-54 110-106 0-59-43-99-99-118-75 20-125 55-124 120 0 56 40 104 113 104z" horiz-adv-x="513" unicode=""/>
    <glyph d="M168 248c-74 0-130-42-130-105 0-34 20-67 63-86v-3C53 34 24 2 24-46c0-55 48-106 138-106 83 0 142 46 142 115 0 48-33 81-78 98v2c45 20 63 55 63 88 0 50-40 97-121 97m-4-353c-46 0-73 32-73 67 0 33 23 60 66 72 47-13 79-33 79-77 0-35-28-62-72-62m0 307c44 0 62-30 62-58 0-32-24-53-55-63-43 11-70 31-70 65 0 30 22 56 63 56z" horiz-adv-x="328" unicode="₈"/>
    <glyph d="M168 661c-74 0-130-42-130-106 0-34 20-67 63-86v-3c-48-19-77-52-77-100 0-54 48-105 138-105 83 0 142 46 142 114 0 48-33 81-78 98v2c45 20 63 55 63 89 0 50-40 97-121 97m-4-353c-46 0-73 32-73 66s23 60 66 72c47-12 79-32 79-76 0-35-28-62-72-62m0 307c44 0 62-30 62-58 0-33-24-54-55-64-43 11-70 31-70 66 0 30 22 56 63 56z" horiz-adv-x="328" unicode=""/>
    <glyph d="M344 320c71 34 105 78 105 136 0 84-74 151-187 151-111 0-197-66-197-162 0-63 45-105 101-129v-3C92 280 41 227 41 155c0-97 86-166 213-166 120 0 218 69 218 177 0 71-53 124-129 151m-82 230c54 0 106-32 106-95 0-56-43-92-96-108-76 20-121 54-121 108 0 59 50 95 111 95m-5-495c-79 0-127 46-127 111 0 56 45 102 111 124 91-24 142-66 142-129 0-64-56-106-126-106z" horiz-adv-x="513" unicode=""/>
    <glyph d="M168 837c-74 0-130-42-130-105 0-34 20-67 63-86v-3c-48-20-77-52-77-100 0-54 48-105 138-105 83 0 142 46 142 114 0 48-33 81-78 98v2c45 20 63 55 63 88 0 50-40 97-121 97m-4-352c-46 0-73 31-73 66 0 34 23 60 66 72 47-12 79-33 79-76 0-36-28-62-72-62m0 306c44 0 62-30 62-58 0-32-24-53-55-63-43 11-70 31-70 65 0 30 22 56 63 56z" horiz-adv-x="328" unicode="⁸"/>
    <glyph d="M351 320c71 34 105 78 105 136 0 84-74 151-187 151-111 0-197-66-197-162 0-63 45-105 101-129v-3C99 280 48 227 48 155c0-97 86-166 213-166 120 0 218 69 218 177 0 71-53 124-129 151m-82 230c54 0 106-32 106-95 0-56-43-92-96-108-76 20-121 54-121 108 0 59 50 95 111 95m-5-495c-79 0-127 46-127 111 0 56 45 102 111 124 91-24 142-66 142-129 0-64-56-106-126-106z" horiz-adv-x="530" unicode=""/>
    <glyph d="M165-11c37 0 61 27 61 63 0 37-24 63-59 63s-60-27-60-63 24-63 58-63m333 0c37 0 61 27 61 63 0 37-24 63-59 63s-60-27-60-63 24-63 58-63m333 0c37 0 61 27 61 63 0 37-24 63-59 63s-60-27-60-63 24-63 58-63z" horiz-adv-x="1000" unicode="…"/>
    <glyph d="M462 226c2 10 3 23 3 41 0 89-41 227-200 227-141 0-227-114-227-260S127-11 276-11c77 0 131 17 162 31l-16 63c-32-14-71-25-134-25-89 0-164 49-166 168m1 63c7 61 45 142 135 142 99 0 123-87 122-142M141 643v-57h225v57z" horiz-adv-x="501" unicode="ē"/>
    <glyph d="M30 284v-60h940v60z" horiz-adv-x="1000" unicode="—"/>
    <glyph d="M30 359v-60h940v60z" horiz-adv-x="1000" unicode=""/>
    <glyph d="M30 284v-60h440v60z" horiz-adv-x="500" unicode="–"/>
    <glyph d="M30 359v-60h440v60z" horiz-adv-x="500" unicode=""/>
    <glyph d="M73 0h88v291c0 15 2 30 6 41 16 49 61 90 118 90 83 0 112-65 112-143V51c0-93-39-144-119-160l17-70c107 15 190 84 190 238v229c0 166-104 206-171 206-80 0-136-45-160-90h-2l-5 80H69c3-40 4-80 4-131z" horiz-adv-x="555" unicode="ŋ"/>
    <glyph d="M385-136c-14-7-33-10-47-10-21 0-41 13-41 42 0 41 55 90 95 107 8 3 30 10 45 17l-15 63c-33-14-71-25-134-25-89 0-164 49-166 168h340c2 9 3 23 3 41 0 89-41 227-200 227-141 0-227-114-227-260C38 89 127-10 274-11c10 0 18 1 27 1v-1c-32-22-72-67-72-116 0-50 35-78 89-78 30 0 59 8 81 24M124 289c7 61 45 142 135 142 98 0 122-87 121-142z" horiz-adv-x="501" unicode="ę"/>
    <glyph d="M159 257C88 246 39 195 39 136 39 27 146-11 243-11c68 0 140 19 177 44l-16 60c-29-18-89-37-142-37-71 0-131 30-131 87 0 59 65 83 152 83h62v62h-59c-76 0-135 21-135 70 0 43 44 72 112 72 48 0 100-17 121-31l19 59c-35 23-85 36-147 36-129 0-193-66-193-130 1-48 33-89 96-103z" horiz-adv-x="440" unicode="ε"/>
    <glyph d="m257 686-54-143h59l83 143M159 257C88 245 39 195 39 136 39 27 146-11 243-11c68 0 140 19 177 44l-16 59c-29-17-89-36-142-36-71 0-131 30-131 87 0 59 65 83 152 83h62v62h-59c-76 0-135 21-135 70 0 43 44 72 112 72 48 0 100-17 121-31l19 58c-36 24-85 37-147 37-129 0-193-66-193-130 1-49 32-89 96-103z" horiz-adv-x="440" unicode="έ"/>
    <glyph d="M556 337v60H40v-60m516-196v60H40v-60z" horiz-adv-x="596" unicode="="/>
    <glyph d="M782 316v9c0 186-167 336-373 336S35 511 35 325 203-11 409-11c120 0 228 52 296 131h-55C592 52 506 9 410 9c-90 0-172 38-229 99-5 6-9 13-9 21v183c0 3 2 4 5 4m469 24c0-3-2-5-5-5H177c-3 0-5 2-5 5v180c0 9 4 17 10 23 58 60 138 98 228 98 88 0 168-37 226-95 6-6 10-13 10-22z" horiz-adv-x="817" unicode="℮"/>
    <glyph d="M152 404c0 31-5 62-14 80H59c11-33 14-82 14-131V0h88v292c0 14 2 30 6 40 16 49 61 90 118 90 83 0 112-65 112-143V-21c0-64 3-147 15-177h84c-10 40-11 125-11 180v306c0 166-104 206-171 206-80 0-136-45-160-90z" horiz-adv-x="555" unicode="η"/>
    <glyph d="m301 686-53-143h58l84 143M152 404c0 31-5 62-14 80H59c11-33 14-82 14-131V0h88v292c0 14 2 30 6 40 16 49 61 90 118 90 83 0 112-65 112-143V-21c0-64 3-147 15-177h84c-10 40-11 125-11 180v306c0 166-104 206-171 206-80 0-136-45-160-90z" horiz-adv-x="555" unicode="ή"/>
    <glyph d="M268 55c-81 0-140 80-140 182 0 80 39 187 143 187 51 0 84-22 106-47 25-31 34-71 34-134 0-110-56-188-143-188M116 507l142 66c51-39 89-82 118-129l-2-3c-39 36-75 43-113 43-114-1-223-92-223-248C38 85 136-11 267-11c115 0 234 78 234 263 0 75-15 139-43 195-29 60-72 114-127 159l106 50-22 44-127-61c-43 31-93 60-140 81l-39-55c37-17 75-38 104-60L97 550z" horiz-adv-x="541" unicode="ð"/>
    <glyph d="m149 193 14 481H67l14-481m33-204c37 0 60 27 60 62 0 36-23 62-58 62S56 87 56 51c0-35 24-62 58-62z" horiz-adv-x="230" unicode="!"/>
    <glyph d="m163-195-14 477H81L67-195m49 683c-35 0-60-26-60-63 0-34 24-61 59-61 36 0 59 27 59 61 0 37-23 63-58 63z" horiz-adv-x="230" unicode="¡"/>
    <glyph d="m163 0-14 477H81L67 0m49 683c-35 0-60-26-60-63 0-34 24-61 59-61 36 0 59 27 59 61 0 37-23 63-58 63z" horiz-adv-x="230" unicode=""/>
    <glyph d="M169 0v417h117v67H169v26c0 75 19 140 94 140 26 0 43-5 56-11l12 68c-17 7-43 14-75 14-41 0-85-13-118-45-40-39-56-101-56-169v-23H15v-67h67V0z" horiz-adv-x="292" unicode="f"/>
    <glyph d="M460 0v417h116v67H460v26c0 75 19 140 93 140 26 0 43-5 57-11l11 68c-16 7-43 14-75 14-40 0-84-13-117-45-41-39-56-101-56-169v-23H169v20c0 76 19 135 88 135 20 0 39-6 52-13l18 66c-15 8-41 17-69 17-54 0-94-17-122-45-38-39-54-97-54-165v-15H15v-67h67V0h87v417h204V0z" horiz-adv-x="583" unicode="ﬀ"/>
    <glyph d="M705 690c-26 17-77 31-121 31-136 0-211-83-211-210v-27H169v18c0 42 8 86 32 112 15 15 35 25 63 25 22 0 45-8 60-17l25 65c-18 9-52 21-85 21-54 0-96-18-124-47-41-40-58-100-58-160v-17H15v-67h67V0h87v417h204V0h87v417h194V0h88v484H460v24c0 77 28 142 120 142 41 0 77-12 99-26z" horiz-adv-x="815" unicode="ﬃ"/>
    <glyph d="M705 690c-26 17-77 31-121 31-136 0-211-83-211-210v-27H169v18c0 42 8 86 32 112 15 15 35 25 63 25 22 0 45-8 60-17l25 65c-18 9-52 21-85 21-54 0-96-18-124-47-41-40-58-100-58-160v-17H15v-67h67V0h87v417h204V0h87v417h194V77c0-116-10-154-34-182-21-23-55-34-96-37l10-69c47 0 111 16 150 55 43 44 58 105 58 199v441H460v24c0 77 28 142 120 142 41 0 77-12 99-26z" horiz-adv-x="809" unicode=""/>
    <glyph d="M349 690c-15 7-48 18-81 18-54 0-99-18-130-48-41-41-56-103-56-165v-11H15v-67h67V0h87v417h204V0h88v417h113v67H460v25c0 77 31 144 122 144 34 0 57-5 72-13V0h88v689c-37 20-89 32-145 32-68 0-118-17-155-49-46-39-69-99-69-167v-21H169v19c0 44 8 85 33 111 15 16 35 25 64 25 21 0 42-5 60-15z" horiz-adv-x="815" unicode="ﬄ"/>
    <glyph d="M169 0v417h193V77c0-116-10-154-34-182-20-23-55-34-95-37l9-69c47 0 111 16 150 55 43 44 58 105 58 199v441H169v24c0 77 27 142 120 142 43 0 80-13 102-28l25 67c-25 18-78 32-123 32-136 0-211-83-211-210v-27H15v-67h67V0z" horiz-adv-x="522" unicode=""/>
    <glyph d="M169 0v417h193V0h88v484H169v24c0 77 27 142 120 142 43 0 80-13 102-28l25 67c-25 18-78 32-123 32-136 0-211-83-211-210v-27H15v-67h67V0z" horiz-adv-x="523" unicode="ﬁ"/>
    <glyph d="M433 650H122L80 338c24 3 53 6 91 6 129 0 186-59 186-143 1-87-71-141-153-141-60 0-113 20-140 36L42 29c32-20 91-40 162-40 141 0 242 95 242 222 0 81-42 138-93 166-40 25-89 35-140 35-24 0-38-1-53-3l25 167h248z" horiz-adv-x="513" unicode="5"/>
    <glyph d="M268 388H66L40 197c15 1 35 4 57 4 81 0 113-33 113-79 0-48-43-76-88-76-38 0-72 12-89 22L19 18C39 7 80-6 124-6c92 0 155 57 155 134 0 49-25 83-55 100-27 16-60 21-93 21-13 0-23 0-31-1l13 85h155z" horiz-adv-x="308" unicode=""/>
    <glyph d="M406 650H95L53 338c24 3 53 6 91 6 129 0 186-59 186-143 1-87-71-141-153-141-60 0-113 20-140 36L15 29c32-20 91-40 162-40 141 0 242 95 242 222 0 81-42 138-93 166-40 25-89 35-140 35-24 0-38-1-53-3l25 167h248z" horiz-adv-x="460" unicode=""/>
    <glyph d="M268 241H66L40 50c15 2 35 4 57 4 81 0 113-33 113-79 0-48-43-76-88-76-38 0-72 12-89 21l-14-49c20-12 61-24 105-24 92 0 155 56 155 134 0 49-25 83-55 100-27 16-60 21-93 21-13 0-23 0-31-1l13 85h155z" horiz-adv-x="308" unicode="₅"/>
    <glyph d="M268 654H66L40 463c15 2 35 4 57 4 81 0 113-32 113-79 0-48-43-76-88-76-38 0-72 12-89 22l-14-50c20-11 61-24 105-24 92 0 155 57 155 134 0 49-25 83-55 100-27 16-60 21-93 21-13 0-23 0-31-1l13 85h155z" horiz-adv-x="308" unicode=""/>
    <glyph d="M36-97c25-10 70-17 114-17 149 0 252 81 252 203 0 43-16 84-46 113-52 50-137 63-220 61l29 150h217l11 72H106L55 198c109 7 188-5 227-43 20-19 31-45 31-73 0-84-78-129-164-129-38 0-79 6-102 13z" horiz-adv-x="441" unicode=""/>
    <glyph d="M268 830H66L40 640c15 1 35 4 57 4 81 0 113-33 113-79 0-48-43-76-88-76-38 0-72 12-89 21l-14-50c20-11 61-23 105-23 92 0 155 56 155 133 0 50-25 84-55 101-27 16-60 21-93 21-13 0-23 0-31-1l13 84h155z" horiz-adv-x="308" unicode="⁵"/>
    <glyph d="M78-97c25-10 70-17 114-17 149 0 252 81 252 203 0 43-16 84-46 113-52 50-137 63-220 61l29 150h217l11 72H148L97 198c109 7 188-5 227-43 20-19 31-45 31-73 0-84-78-129-164-129-38 0-79 6-102 13z" horiz-adv-x="530" unicode=""/>
    <glyph d="M169 0v417h113v67H169v25c0 77 31 144 122 144 34 0 57-5 72-13V0h88v689c-37 20-89 32-145 32-68 0-118-17-156-49-45-39-68-99-68-167v-21H15v-67h67V0z" horiz-adv-x="523" unicode="ﬂ"/>
    <glyph d="M111 338h92l-23-197C168 39 145-16 83-16c-21 0-39 3-56 11L11-67c17-10 45-17 78-17 117 0 158 88 174 218l24 204h128v64H295l6 51c8 74 38 139 106 139 20 0 37-4 52-10l16 64c-14 8-38 14-68 15-135 0-179-115-191-213l-6-46h-99z" horiz-adv-x="513" unicode="ƒ"/>
    <glyph d="M128 282h92l-20-175C188 5 164-50 103-50c-21 0-39 3-56 11l-16-62c16-10 44-17 77-17 118 1 159 88 174 218l22 182h128v58H311l7 59c8 74 38 139 106 139 20 0 37-4 52-10l17 64c-14 8-39 15-69 15-134 1-179-115-191-214l-6-53h-99z" horiz-adv-x="530" unicode=""/>
    <glyph d="M400 0v178h91v68h-91v404h-95L15 235v-57h302V0M104 246v2l159 221c18 30 34 58 54 96h3c-2-34-3-68-3-102V246z" horiz-adv-x="513" unicode="4"/>
    <glyph d="M272 0v102h55v50h-55v238h-79L16 143v-41h189V0m0 152H87l-1 1 86 119c12 18 22 36 34 59h2c-1-20-3-41-3-63z" horiz-adv-x="347" unicode=""/>
    <glyph d="M396 0v178h91v68h-91v404h-95L11 235v-57h302V0M100 246v2l159 221c18 30 34 58 54 96h3c-2-34-3-68-3-102V246z" horiz-adv-x="503" unicode=""/>
    <glyph d="M272-147v102h55V5h-55v238h-79L16-4v-41h189v-102m0 152H87l-1 1 86 119c12 18 22 36 34 59h2c-1-20-3-41-3-63z" horiz-adv-x="347" unicode="₄"/>
    <glyph d="M272 266v102h55v50h-55v238h-79L16 409v-41h189V266m0 152H87l-1 1 86 119c12 18 22 36 34 59h2c-1-20-3-41-3-63z" horiz-adv-x="347" unicode=""/>
    <glyph d="M483 50v67h-91v375h-95L18 107V50h292v-167h82V50m-82 67H106l-1 3 150 199c19 29 38 62 54 94l4-1c-3-32-3-62-3-94z" horiz-adv-x="502" unicode=""/>
    <glyph d="M272 443v102h55v50h-55v237h-79L16 586v-41h189V443m0 152H87l-1 1 86 118c12 18 22 36 34 59h2c-1-20-3-41-3-63z" horiz-adv-x="347" unicode="⁴"/>
    <glyph d="M497 50v67h-91v375h-95L32 107V50h292v-167h82V50m-82 67H120l-1 3 150 199c19 29 38 62 54 94l4-1c-3-32-3-62-3-94z" horiz-adv-x="530" unicode=""/>
    <glyph d="m-101-11 380 672h-56L-157-11z" horiz-adv-x="121" unicode="⁄"/>
    <glyph d="M487 352c0 58 1 98 4 132h-78l-3-73h-2c-22 40-67 83-151 83-112 0-219-92-219-256C38 104 124 2 244 2c75 0 128 36 154 81h2V30c0-123-66-170-156-170-60 0-110 18-142 39l-22-68c39-26 103-40 161-40 61 0 129 15 177 58 46 43 69 110 69 222m-88 135c0-15-2-32-7-47-18-56-67-90-122-90-94 0-143 79-143 174 0 112 60 183 144 183 65 0 107-42 123-94 4-11 5-24 5-39z" horiz-adv-x="559" unicode="g"/>
    <glyph d="M475 352c0 58 1 98 4 132h-78l-3-73h-2c-22 40-67 83-151 83-112 0-219-92-219-256C26 104 112 2 232 2c75 0 128 36 154 81h2V30c0-123-66-170-156-170-60 0-110 18-142 39l-22-68c39-26 103-40 161-40 61 0 129 15 177 58 46 43 69 110 69 222m-88 135c0-15-2-32-7-47-18-56-67-90-122-90-94 0-143 79-143 174 0 112 60 183 144 183 65 0 107-42 123-94 4-11 5-24 5-39M205 567c2 28 10 45 26 45 12 0 23-7 43-18s39-21 61-21c47 0 69 35 68 101h-47c-2-33-12-42-27-42-13 0-26 8-42 17-23 12-40 22-62 22-43 0-70-39-68-104z" horiz-adv-x="559" unicode=""/>
    <glyph d="M270-198c-1 68-1 143-3 200 0 9 0 16 5 24 93 141 171 301 171 425 0 12 0 25-2 33h-83v-33c0-119-70-263-114-343h-3C210 256 137 418 94 484H-5c49-74 134-238 171-398 22-96 20-191 17-284z" horiz-adv-x="464" unicode="γ"/>
    <glyph d="M487 352c0 58 1 98 4 132h-78l-3-73h-2c-22 40-67 83-151 83-112 0-219-92-219-256C38 104 124 2 244 2c75 0 128 36 154 81h2V30c0-123-66-170-156-170-60 0-110 18-142 39l-22-68c39-26 103-40 161-40 61 0 129 15 177 58 46 43 69 110 69 222m-88 135c0-15-2-32-7-47-18-56-67-90-122-90-94 0-143 79-143 174 0 112 60 183 144 183 65 0 107-42 123-94 4-11 5-24 5-39M148 682c0-63 36-125 124-125 75 0 124 50 124 125h-52c-3-34-25-69-73-69-40 0-65 30-71 69z" horiz-adv-x="559" unicode="ğ"/>
    <glyph d="M487 352c0 58 1 98 4 132h-78l-3-73h-2c-22 40-67 83-151 83-112 0-219-92-219-256C38 104 124 2 244 2c75 0 128 36 154 81h2V30c0-123-66-170-156-170-60 0-110 18-142 39l-22-68c39-26 103-40 161-40 61 0 129 15 177 58 46 43 69 110 69 222m-88 135c0-15-2-32-7-47-18-56-67-90-122-90-94 0-143 79-143 174 0 112 60 183 144 183 65 0 107-42 123-94 4-11 5-24 5-39M248 696l-94-143h66l58 94h2l58-94h67l-96 143z" horiz-adv-x="559" unicode="ĝ"/>
    <glyph d="M487 352c0 58 1 98 4 132h-78l-3-73h-2c-22 40-67 83-151 83-112 0-219-92-219-256C38 104 124 2 244 2c75 0 128 36 154 81h2V30c0-123-66-170-156-170-60 0-110 18-142 39l-22-68c39-26 103-40 161-40 61 0 129 15 177 58 46 43 69 110 69 222m-88 135c0-15-2-32-7-47-18-56-67-90-122-90-94 0-143 79-143 174 0 112 60 183 144 183 65 0 107-42 123-94 4-11 5-24 5-39m-60 416c-63-4-130-32-130-103 0-32 19-59 39-71l64 13c-19 14-35 36-35 59 0 40 36 59 78 65z" horiz-adv-x="559" unicode="ģ"/>
    <glyph d="M487 352c0 58 1 98 4 132h-78l-3-73h-2c-22 40-67 83-151 83-112 0-219-92-219-256C38 104 124 2 244 2c75 0 128 36 154 81h2V30c0-123-66-170-156-170-60 0-110 18-142 39l-22-68c39-26 103-40 161-40 61 0 129 15 177 58 46 43 69 110 69 222m-88 135c0-15-2-32-7-47-18-56-67-90-122-90-94 0-143 79-143 174 0 112 60 183 144 183 65 0 107-42 123-94 4-11 5-24 5-39M278 573c30 0 50 24 50 52s-21 51-49 51-51-23-51-51 21-52 50-52z" horiz-adv-x="559" unicode="ġ"/>
    <glyph d="M161 0v456c0 142 43 196 120 196 62 0 104-40 104-109 0-16-3-31-8-43-59-28-90-72-90-123 0-56 36-93 78-133 35-33 54-61 54-103 0-46-34-84-98-84-30 0-58 7-84 20l-16-67c29-15 69-21 106-21 111 0 179 65 179 159 0 72-41 114-81 154-31 32-51 53-51 87s26 62 71 81c12 17 24 48 24 82 0 110-83 169-178 169-61 0-109-17-146-51-45-40-72-104-72-218V0z" horiz-adv-x="548" unicode="ß"/>
    <glyph d="m22 693 122-143h62l-88 143z" horiz-adv-x="300" unicode="`"/>
    <glyph d="m-2 827 128-116h71l-93 116z" horiz-adv-x="300" unicode=""/>
    <glyph d="M530 295 66 532v-69l394-196v-2L66 69V0l464 238z" horiz-adv-x="596" unicode="&gt;"/>
    <glyph d="M530 292v59L66 543v-66l382-155v-2L66 166V99M528 0v58H66V0z" horiz-adv-x="596" unicode="≥"/>
    <glyph d="M232 436h-71L29 252 161 68h72L99 252m297 184h-71L193 252 325 68h71L263 252z" horiz-adv-x="419" unicode="«"/>
    <glyph d="M232 511h-71L29 327l132-184h72L99 327m297 184h-71L193 327l132-184h71L263 327z" horiz-adv-x="419" unicode=""/>
    <glyph d="M157 252 24 68h70l133 184L94 436H24m296-184L187 68h70l133 184-133 184h-71z" horiz-adv-x="419" unicode="»"/>
    <glyph d="M157 327 24 143h70l133 184L94 511H24m296-184L187 143h70l133 184-133 184h-71z" horiz-adv-x="419" unicode=""/>
    <glyph d="M232 436h-71L29 252 161 68h71L99 252z" horiz-adv-x="255" unicode="‹"/>
    <glyph d="M232 511h-71L29 327l132-184h71L99 327z" horiz-adv-x="255" unicode=""/>
    <glyph d="M157 252 24 68h70l133 184L94 436H24z" horiz-adv-x="255" unicode="›"/>
    <glyph d="M157 327 24 143h70l133 184L94 511H24z" horiz-adv-x="255" unicode=""/>
    <glyph d="M73 0h88v292c0 16 1 29 6 42 17 47 61 87 118 87 83 0 112-65 112-143V0h88v288c0 166-104 206-169 206-33 0-64-9-90-24-27-15-49-38-63-63h-2v303H73z" horiz-adv-x="555" unicode="h"/>
    <glyph d="M485 0v288c0 166-104 206-169 206-33 0-64-9-90-24-27-15-49-38-63-63h-2v145h194v55H161v103H73V607H-4v-55h77V0h88v292c0 16 1 29 6 42 17 47 61 87 118 87 83 0 112-65 112-143V0z" horiz-adv-x="555" unicode="ħ"/>
    <glyph d="M73 0h88v292c0 16 1 29 6 42 17 47 61 87 118 87 83 0 112-65 112-143V0h88v288c0 166-104 206-169 206-33 0-64-9-90-24-27-15-49-38-63-63h-2v303H73m13 133L-16 729h71l64 69h2l63-69h74L153 843z" horiz-adv-x="555" unicode="ĥ"/>
    <glyph d="M123 693 44 557h55l110 136m58 0-79-136h55l110 136z" horiz-adv-x="300" unicode="˝"/>
    <glyph d="M117 827 37 715h64l111 112m52 0-80-112h64l111 112z" horiz-adv-x="300" unicode=""/>
    <glyph d="M30 302v-64h247v64z" horiz-adv-x="307" unicode="-"/>
    <glyph d="M30 377v-64h247v64z" horiz-adv-x="307" unicode=""/>
    <glyph d="M18 208v-48h155v48z" horiz-adv-x="191" unicode=""/>
    <glyph d="M18 61V13h155v48z" horiz-adv-x="191" unicode=""/>
    <glyph d="M18 474v-48h155v48z" horiz-adv-x="191" unicode=""/>
    <glyph d="M18 650v-48h155v48z" horiz-adv-x="191" unicode=""/>
    <glyph d="M161 0v484H73V0m44 675c-33 0-55-25-55-55s21-54 53-54c35 0 56 24 56 54 0 31-22 55-54 55z" horiz-adv-x="234" unicode="i"/>
    <glyph d="M161 0v484H73V0m83 693L68 550h62l122 143z" horiz-adv-x="234" unicode="í"/>
    <glyph d="M161 0v484H73V0M-4 682c0-63 36-125 124-125 75 0 124 50 124 125h-52c-3-34-25-69-73-69-40 0-65 30-71 69z" horiz-adv-x="234" unicode="ĭ"/>
    <glyph d="M161 0v484H73V0m13 693L-8 550h66l58 94h2l58-94h67l-96 143z" horiz-adv-x="234" unicode="î"/>
    <glyph d="M161 0v484H73V0M24 570c30 0 50 24 50 51 0 29-21 51-48 51-29 0-51-23-51-51 0-27 21-51 49-51m185 0c30 0 50 24 50 51 0 29-21 51-49 51s-50-23-50-51c0-27 20-51 49-51z" horiz-adv-x="234" unicode="ï"/>
    <glyph d="M161 0v484H73V0M-27 693 95 550h62L69 693z" horiz-adv-x="234" unicode="ì"/>
    <glyph d="M161 0v484H73V0m44 675c-33 0-55-25-55-55s21-54 53-54c35 0 56 24 56 54 0 31-22 55-54 55m80-886c48 0 112 16 151 55 43 44 58 105 58 199v441h-88V77c0-116-10-154-34-182-21-23-55-34-96-37m174 817c-33 0-55-25-55-55 0-29 21-54 53-54 36 0 56 25 56 54 0 30-21 55-54 55z" horiz-adv-x="477" unicode="ĳ"/>
    <glyph d="M161 0v484H73V0M5 643v-57h225v57z" horiz-adv-x="234" unicode="ī"/>
    <glyph d="M541 117c88 0 152 68 152 146 0 87-59 148-143 148-82 0-135-55-186-106-48 48-103 106-178 106-87 0-151-68-151-148 0-85 59-146 143-146 82 0 135 55 186 105 48-47 103-105 177-105m2 59c-59 0-100 52-139 87 38 39 84 89 141 89 49 0 85-38 85-89 0-47-38-87-87-87m-359 0c-50 0-86 37-86 87 0 48 38 89 88 89 58 0 99-53 138-89-38-39-84-87-140-87z" horiz-adv-x="728" unicode="∞"/>
    <glyph d="M306 788c-10 4-27 7-45 7-34 0-65-11-89-37-36-38-52-95-52-196 0-146 12-324 12-476 0-96-14-133-31-154-12-14-28-21-44-21-15 0-27 3-36 6l-11-57c9-5 31-10 53-10 39 0 74 16 96 48 24 32 42 90 42 188 0 151-12 325-12 471 0 89 9 132 29 157 11 15 29 22 46 22 11 0 22-2 30-4z" horiz-adv-x="316" unicode="∫"/>
    <glyph d="M115 571c36 0 57 25 57 55 0 31-22 56-55 56s-56-25-56-56c0-30 22-55 54-55m46-87H73V0C55-27 25-74 25-123c0-57 38-87 93-87 25 0 60 8 81 23l-14 46c-11-5-26-9-45-9-29 0-51 18-51 52 0 36 26 77 41 98h31z" horiz-adv-x="234" unicode="į"/>
    <glyph d="M161 484H73V108c0-96 39-119 91-119 14 0 30 2 39 5l5 64c-38-2-47 16-47 59z" horiz-adv-x="236" unicode="ι"/>
    <glyph d="M28 557c30 0 49 24 49 51 0 28-21 50-48 50-28 0-50-23-50-50s20-51 49-51m183 0c31 0 50 24 50 51 0 28-21 50-48 50-29 0-50-23-50-50s20-51 48-51m-50-73H73V109c0-97 39-120 91-120 14 0 30 2 39 5l5 64c-38-2-47 16-47 59z" horiz-adv-x="236" unicode="ϊ"/>
    <glyph d="M161 484H74V108c0-96 38-119 90-119 14 0 29 2 38 5l6 64c-38-2-47 16-47 59m-54 579L86 540h47l49 156M4 560c28 0 46 22 46 47 0 26-19 46-44 46-26 0-47-21-47-46s19-47 45-47m241 0c29 0 47 22 47 47 0 26-19 46-45 46s-46-21-46-46 19-47 44-47z" horiz-adv-x="236" unicode="ΐ"/>
    <glyph d="M133 686 80 543h59l84 143m-62-202H73V108c0-96 39-119 91-119 14 0 30 2 39 5l5 64c-38-2-47 16-47 59z" horiz-adv-x="236" unicode="ί"/>
    <glyph d="M161 0v484H73V0M42 567c2 28 10 45 26 45 12 0 23-6 43-17 21-12 40-22 62-22 47 0 69 35 68 101h-47c-2-33-12-42-27-42-13 0-27 8-43 17-23 12-40 22-62 22-43 0-70-39-68-104z" horiz-adv-x="234" unicode="ĩ"/>
    <glyph d="M-36-211c47 0 111 16 150 55 43 44 58 105 58 199v441H84V77C84-39 74-77 50-104c-21-24-55-35-96-38m174 817c-33 0-55-25-55-55 0-29 21-54 53-54 36 0 56 25 56 54 0 30-21 55-54 55z" horiz-adv-x="243" unicode="j"/>
    <glyph d="M-36-211c47 0 111 16 150 55 43 44 58 105 58 199v441H84V77C84-39 74-77 50-104c-21-24-55-35-96-38M90 686-4 543h66l58 94h2l58-94h67l-96 143z" horiz-adv-x="243" unicode="ĵ"/>
    <glyph d="M160 710H73V0h87v182l45 50L371 0h108L266 285l186 199H347L204 317c-14-17-30-38-42-55h-2z" horiz-adv-x="469" unicode="k"/>
    <glyph d="M250 262c85 81 162 155 230 218v4H377c-57-57-125-133-212-215h-4v133c0 40-5 71-14 82H63c7-17 11-66 11-105V0h87v215h9c45-1 90-48 139-112L385 0h102l-88 121c-49 65-101 127-149 138z" horiz-adv-x="493" unicode="κ"/>
    <glyph d="M160 710H73V0h87v182l45 50L371 0h108L266 285l186 199H347L204 317c-14-17-30-38-42-55h-2m17-484c62 4 129 34 129 107 0 33-20 61-40 74l-65-14c18-14 34-37 34-61 0-39-36-59-75-65z" horiz-adv-x="469" unicode="ķ"/>
    <glyph d="M160 484H73V0h87v182l45 50L371 0h108L266 285l186 199H347L204 317c-14-17-30-38-42-55h-2z" horiz-adv-x="469" unicode="ĸ"/>
    <glyph d="M73 0h88v710H73z" horiz-adv-x="236" unicode="l"/>
    <glyph d="M73 0h88v710H73m81 146L61 739h71l128 117z" horiz-adv-x="236" unicode="ĺ"/>
    <glyph d="M364 0h93L272 492c-53 137-97 228-192 228-12 0-26-1-34-4l-8-68c6 1 12 1 17 1 59 0 95-67 126-152 5-12 6-20 6-26 0-5-1-12-5-23L7 0h91l100 280c11 33 24 70 31 102h4c11-39 21-72 33-105z" horiz-adv-x="472" unicode="λ"/>
    <glyph d="M73 0h88v710H73m166-188c15 13 65 49 65 122 0 35-18 64-36 75l-62-14c16-15 30-40 30-65 0-41-20-70-35-89z" horiz-adv-x="244" unicode="ľ"/>
    <glyph d="M73 0h88v710H73M52-222c62 4 129 34 129 107 0 33-20 61-40 74L76-55c18-14 34-37 34-61 0-39-36-59-75-65z" horiz-adv-x="236" unicode="ļ"/>
    <glyph d="M73 0h88v710H73m179-369c28 0 47 23 47 50 0 28-20 50-46 50-27 0-48-23-48-50s20-50 47-50z" horiz-adv-x="272" unicode="ŀ"/>
    <glyph d="M66 239 530 0v69L139 265v2l391 196v69L66 293z" horiz-adv-x="596" unicode="&lt;"/>
    <glyph d="M530 99v67L148 320v2l382 155v66L66 351v-59M530 0v58H68V0z" horiz-adv-x="596" unicode="≤"/>
    <glyph d="M40 399v-60h452V121h64v278z" horiz-adv-x="596" unicode="¬"/>
    <glyph d="M477 324 295 680h-69L45 324 226-31h69m106 354L273 59c-3-7-7-15-10-23h-2c-2 8-6 16-10 23L120 326l128 264c4 6 8 15 11 23h2c2-8 6-17 10-23z" horiz-adv-x="522" unicode="◊"/>
    <glyph d="M165 0v355l71 61v70l-71-61v285H77V357L9 299v-69l68 58V0z" horiz-adv-x="242" unicode="ł"/>
    <glyph d="M73 0h86v291c0 15 2 31 7 43 14 44 55 88 109 88 67 0 101-55 101-132V0h86v299c0 16 3 31 7 44 16 42 54 79 105 79 70 0 105-55 105-149V0h86v284c0 168-95 210-160 210-46 0-77-12-106-34-20-15-40-35-55-63h-2c-21 57-71 97-136 97-81 0-126-43-153-89h-3l-4 79H69c2-40 4-80 4-131z" horiz-adv-x="834" unicode="m"/>
    <glyph d="M73 0h86v291c0 15 2 31 7 43 14 44 55 88 109 88 67 0 101-55 101-132V0h86v299c0 16 3 31 7 44 16 42 54 79 104 79 71 0 105-55 105-149V0h86v284c0 168-95 210-160 210-45 0-76-12-106-34-20-15-39-35-54-63h-2c-21 57-71 97-136 97-81 0-126-43-153-89h-3l-4 79H69c2-40 4-80 4-131m312 340-94-143h66l58 94h2l58-94h67l-96 143z" horiz-adv-x="834" unicode=""/>
    <glyph d="M38 643v-57h225v57z" horiz-adv-x="300" unicode="¯"/>
    <glyph d="M31 788v-55h240v55z" horiz-adv-x="300" unicode=""/>
    <glyph d="M40 297v-60h516v60z" horiz-adv-x="596" unicode="−"/>
    <glyph d="M403 75c8-62 43-86 86-86 15 0 20 1 31 4l7 64c-36 2-46 23-46 76v351h-88V188c0-17-3-33-8-46-16-40-57-81-115-81-78 0-109 62-109 137v286H73V-19c0-78 4-149 14-179h79c-9 40-11 129-11 183v59C176 7 217-9 261-9c72 0 119 46 139 84z" horiz-adv-x="553" unicode="µ"/>
    <glyph d="m40 482 214-219L40 44 84 0l214 219L512 0l44 44-215 219 215 219-44 44-214-219L84 526z" horiz-adv-x="596" unicode="×"/>
    <glyph d="M73 0h88v291c0 15 2 30 6 41 16 49 61 90 118 90 83 0 112-65 112-143V0h88v288c0 166-104 206-171 206-80 0-136-45-160-90h-2l-5 80H69c3-40 4-80 4-131z" horiz-adv-x="555" unicode="n"/>
    <glyph d="m246 693-94-143h66l58 94h2l58-94h67l-96 143M73 0h88v291c0 15 2 30 6 41 16 49 61 90 118 90 83 0 112-65 112-143V0h88v288c0 166-104 206-171 206-80 0-136-45-160-90h-2l-5 80H69c3-40 4-80 4-131z" horiz-adv-x="555" unicode=""/>
    <glyph d="M73 0h88v291c0 15 2 30 6 41 16 49 61 90 118 90 83 0 112-65 112-143V0h88v288c0 166-104 206-171 206-80 0-136-45-160-90h-2l-5 80H69c3-40 4-80 4-131m245 340-88-143h62l122 143z" horiz-adv-x="555" unicode="ń"/>
    <glyph d="M73 0h88v291c0 15 2 30 6 41 16 49 61 90 118 90 83 0 112-65 112-143V0h88v288c0 166-104 206-171 206-80 0-136-45-160-90h-2l-5 80H69c3-40 4-80 4-131M56 536c16 12 67 48 67 115 0 35-19 62-35 72l-64-17c17-14 31-36 31-59 0-38-20-63-37-82z" horiz-adv-x="555" unicode="ŉ"/>
    <glyph d="M73 0h88v291c0 15 2 30 6 41 16 49 61 90 118 90 83 0 112-65 112-143V0h88v288c0 166-104 206-171 206-80 0-136-45-160-90h-2l-5 80H69c3-40 4-80 4-131m237 197 94 143h-66l-59-95h-2l-59 95h-67l96-143z" horiz-adv-x="555" unicode="ň"/>
    <glyph d="M73 0h88v291c0 15 2 30 6 41 16 49 61 90 118 90 83 0 112-65 112-143V0h88v288c0 166-104 206-171 206-80 0-136-45-160-90h-2l-5 80H69c3-40 4-80 4-131m148-573c62 4 129 34 129 107 0 33-20 61-40 74l-65-14c18-14 34-37 34-61 0-39-36-59-75-65z" horiz-adv-x="555" unicode="ņ"/>
    <glyph d="M96-10c21-1 49 0 81 5 70 8 139 38 189 87 64 62 112 162 112 304 0 168-82 275-215 275S41 553 41 430c0-111 75-199 191-199 66 0 118 25 154 69h3c-12-76-43-133-86-172-37-36-85-56-136-63-30-3-52-5-71-3m159 532c93 0 134-85 134-196 0-15-3-24-8-33-23-39-69-68-128-68-76 0-125 57-125 138 0 93 53 159 127 159z" horiz-adv-x="513" unicode="9"/>
    <glyph d="M58-4c11-1 29 0 47 2 50 4 97 21 130 52 40 37 68 97 68 180 0 96-50 165-139 165-83 0-141-64-141-138 0-70 50-120 121-120 39 0 69 15 89 38h2c-7-40-25-71-51-92-23-19-53-30-84-33-16-2-31-2-42-1m102 296c54 0 76-47 76-104 0-8-1-15-4-19-13-21-38-37-71-37-44 0-71 33-71 75 0 49 30 85 70 85z" horiz-adv-x="327" unicode=""/>
    <glyph d="M96-10c21-1 49 0 81 5 70 8 139 38 189 87 64 62 112 162 112 304 0 168-82 275-215 275S41 553 41 430c0-111 75-199 191-199 66 0 118 25 154 69h3c-12-76-43-133-86-172-37-36-85-56-136-63-30-3-52-5-71-3m159 532c93 0 134-85 134-196 0-15-3-24-8-33-23-39-69-68-128-68-76 0-125 57-125 138 0 93 53 159 127 159z" horiz-adv-x="517" unicode=""/>
    <glyph d="M58-151c11-1 29 0 47 2 50 4 97 21 130 52 40 37 68 97 68 180 0 96-50 165-139 165-83 0-141-64-141-138C23 40 73-10 144-10c39 0 69 15 89 38h2c-7-40-25-71-51-92-23-19-53-30-84-33-16-2-31-2-42-1m102 296c54 0 76-47 76-104 0-8-1-15-4-19-13-21-38-37-71-37-44 0-71 33-71 75 0 49 30 85 70 85z" horiz-adv-x="327" unicode="₉"/>
    <glyph d="M58 262c11-1 29 0 47 2 50 4 97 21 130 52 40 37 68 97 68 180 0 96-50 165-139 165-83 0-141-64-141-138 0-70 50-120 121-120 39 0 69 15 89 38h2c-7-40-25-71-51-92-23-19-53-30-84-33-16-2-31-2-42-1m102 296c54 0 76-47 76-104 0-8-1-15-4-19-13-21-38-37-71-37-44 0-71 33-71 75 0 49 30 85 70 85z" horiz-adv-x="327" unicode=""/>
    <glyph d="M82-114c230 7 390 148 390 371 0 154-94 241-213 241-122 0-216-92-216-214 0-120 85-191 186-191 68 0 123 34 144 67h2C347 42 247-42 75-49m178 204c-66 0-123 43-123 136 0 94 65 139 125 139 71 0 130-60 130-150 0-25-6-47-16-60-19-35-66-65-116-65z" horiz-adv-x="520" unicode=""/>
    <glyph d="M58 438c11 0 29 0 47 2 50 4 97 21 130 52 40 37 68 97 68 180 0 96-50 165-139 165-83 0-141-64-141-138 0-70 50-120 121-120 39 0 69 15 89 38h2c-7-40-25-71-51-92-23-19-53-30-84-33-16-2-31-2-42-1m102 296c54 0 76-47 76-104 0-8-1-15-4-19-13-21-38-37-71-37-44 0-71 33-71 75 0 49 30 85 70 85z" horiz-adv-x="327" unicode="⁹"/>
    <glyph d="M89-114c230 7 390 148 390 371 0 154-94 241-213 241-122 0-216-92-216-214 0-120 85-191 186-191 68 0 123 34 144 67h2C354 42 254-42 82-49m178 204c-66 0-123 43-123 136 0 94 65 139 125 139 71 0 130-60 130-150 0-25-6-47-16-60-19-35-66-65-116-65z" horiz-adv-x="530" unicode=""/>
    <glyph d="M556 140v60H285l88 138h183v60H411l79 122h-65l-76-122H40v-60h271l-89-138H40v-60h144L105 18h65l76 122z" horiz-adv-x="596" unicode="≠"/>
    <glyph d="M73 0h88v291c0 15 2 30 6 41 16 49 61 90 118 90 83 0 112-65 112-143V0h88v288c0 166-104 206-171 206-80 0-136-45-160-90h-2l-5 80H69c3-40 4-80 4-131m130 214c2 28 10 45 26 45 12 0 23-7 43-18s39-21 61-21c47 0 69 35 68 101h-47c-2-33-12-42-27-42-13 0-26 8-42 17-23 12-40 22-62 22-43 0-70-39-68-104z" horiz-adv-x="555" unicode="ñ"/>
    <glyph d="M4 484 181 0h83c88 147 180 311 180 449 0 12-1 25-3 35h-82c1-14 1-28 1-45 0-112-85-275-125-353h-4c-13 42-25 83-41 127L97 484z" horiz-adv-x="469" unicode="ν"/>
    <glyph d="m188 255 19 145h104l-19-145M154 0l25 196h104L257 0h60l26 196h95v59h-86l18 145h91v59h-82l25 191h-59l-25-191H215l26 191h-59l-26-191H61v-59h87l-19-145H37v-59h83L94 0z" horiz-adv-x="497" unicode="#"/>
    <glyph d="m205 226 19 145h104l-19-145M174-3l22 170h104L277-3h61l22 170h95v59h-86l18 145h91v59h-82l22 165h-59l-22-165H232l22 165h-59l-22-165H78v-59h87l-19-145H54v-59h83L114-3z" horiz-adv-x="530" unicode=""/>
    <glyph d="M278 494c-133 0-240-95-240-256C38 85 140-11 270-11c116 0 241 78 241 257 0 147-94 248-233 248m-2-66c104 0 145-103 145-185 0-109-63-188-147-188-86 0-146 80-146 186 0 91 45 187 148 187z" horiz-adv-x="549" unicode="o"/>
    <glyph d="M278 494c-133 0-240-95-240-256C38 85 140-11 270-11c116 0 241 78 241 257 0 147-94 248-233 248m-2-66c104 0 145-103 145-185 0-109-63-188-147-188-86 0-146 80-146 186 0 91 45 187 148 187m33 265-87-143h62l122 143z" horiz-adv-x="549" unicode="ó"/>
    <glyph d="M278 494c-133 0-240-95-240-256C38 85 140-11 270-11c116 0 241 78 241 257 0 147-94 248-233 248m-2-66c104 0 145-103 145-185 0-109-63-188-147-188-86 0-146 80-146 186 0 91 45 187 148 187M150 682c0-63 36-125 124-125 75 0 124 50 124 125h-52c-3-34-25-69-73-69-40 0-65 30-71 69z" horiz-adv-x="549" unicode="ŏ"/>
    <glyph d="M278 494c-133 0-240-95-240-256C38 85 140-11 270-11c116 0 241 78 241 257 0 147-94 248-233 248m-2-66c104 0 145-103 145-185 0-109-63-188-147-188-86 0-146 80-146 186 0 91 45 187 148 187m-33 265-94-143h66l57 94h2l59-94h67l-96 143z" horiz-adv-x="549" unicode="ô"/>
    <glyph d="M278 494c-133 0-240-95-240-256C38 85 140-11 270-11c116 0 241 78 241 257 0 147-94 248-233 248m-2-66c104 0 145-103 145-185 0-109-63-188-147-188-86 0-146 80-146 186 0 91 45 187 148 187m-95 142c30 0 50 24 50 51 0 29-21 51-48 51-29 0-51-23-51-51 0-27 21-51 49-51m185 0c30 0 50 24 50 51 0 29-21 51-49 51s-50-23-50-51c0-27 20-51 49-51z" horiz-adv-x="549" unicode="ö"/>
    <glyph d="M824 227c1 9 2 24 2 41 0 85-40 226-195 226-75 0-141-38-177-115h-2c-30 73-100 115-182 115-130 0-232-98-232-255C38 86 136-11 264-11c74 0 151 36 187 114h2C491 24 561-11 645-11c53 0 118 11 157 33l-17 63c-32-14-69-27-129-27-93 0-161 59-161 169M270 428c101 0 143-94 143-186 0-111-57-187-142-187-83 0-143 81-143 186 0 83 37 187 142 187m224-138c6 60 43 141 130 141 96 0 119-87 118-141z" horiz-adv-x="863" unicode="œ"/>
    <glyph d="M123 4C99-22 63-69 63-119c0-56 38-86 94-86 24 0 59 8 80 23l-14 46c-12-6-28-10-46-10-30 0-50 19-50 50 0 38 38 81 53 100z" horiz-adv-x="300" unicode="˛"/>
    <glyph d="M123 4C99-22 63-69 63-119c0-56 38-86 94-86 24 0 59 8 80 23l-14 46c-12-6-28-10-46-10-30 0-50 19-50 50 0 38 38 81 53 100z" horiz-adv-x="300" unicode=""/>
    <glyph d="M278 494c-133 0-240-95-240-256C38 85 140-11 270-11c116 0 241 78 241 257 0 147-94 248-233 248m-2-66c104 0 145-103 145-185 0-109-63-188-147-188-86 0-146 80-146 186 0 91 45 187 148 187M145 693l122-143h62l-88 143z" horiz-adv-x="549" unicode="ò"/>
    <glyph d="M276 428c105 1 146-102 146-184-1-110-64-189-148-189-86 0-146 80-146 186 0 91 45 187 148 187m194 125c10-17 17-37 17-58-1-26-15-40-41-40-31 0-61 19-85 26-27 8-53 13-83 13-133 0-240-95-240-256C38 85 140-11 270-11c116 0 241 78 241 257 0 64-18 119-50 160 61-3 93 33 93 86 0 28-7 53-17 73z" horiz-adv-x="553" unicode="ơ"/>
    <glyph d="M278 494c-133 0-240-95-240-256C38 85 140-11 270-11c116 0 241 78 241 257 0 147-94 248-233 248m-2-66c104 0 145-103 145-185 0-109-63-188-147-188-86 0-146 80-146 186 0 91 45 187 148 187m-38 265-79-136h55l110 136m58 0-79-136h55l110 136z" horiz-adv-x="549" unicode="ő"/>
    <glyph d="M278 494c-133 0-240-95-240-256C38 85 140-11 270-11c116 0 241 78 241 257 0 147-94 248-233 248m-2-66c104 0 145-103 145-185 0-109-63-188-147-188-86 0-146 80-146 186 0 91 45 187 148 187M162 643v-57h225v57z" horiz-adv-x="549" unicode="ō"/>
    <glyph d="M388 363h-83l2-192c1-60-35-109-80-109-46 0-103 52-103 187 0 103 35 190 80 239v2h-82c-42-42-84-134-84-243C38 62 131-11 215-11c60 0 105 33 128 85h4c20-52 66-85 126-85 92 0 183 85 183 266 0 111-40 199-83 235h-83v-2c46-45 80-136 80-231 0-131-51-195-101-195-48 0-84 48-83 110z" horiz-adv-x="694" unicode="ω"/>
    <glyph d="m360 686-53-143h58l84 143m-61-323h-83l2-192c1-60-35-109-80-109-46 0-103 52-103 187 0 103 35 190 80 239v2h-82c-42-42-84-134-84-243C38 62 131-11 215-11c60 0 105 33 128 85h4c20-52 66-85 126-85 92 0 183 85 183 266 0 111-40 199-83 235h-83v-2c46-45 80-136 80-231 0-131-51-195-101-195-48 0-84 48-83 110z" horiz-adv-x="694" unicode="ώ"/>
    <glyph d="M270-11c116 0 241 78 241 257 0 147-94 248-233 248-133 0-240-95-240-256C38 85 140-11 270-11m4 66c-86 0-146 80-146 186 0 91 45 187 148 187 104 0 145-103 145-185 0-109-63-188-147-188z" horiz-adv-x="549" unicode="ο"/>
    <glyph d="m289 686-53-143h58l83 143M270-11c116 0 241 78 241 257 0 147-94 248-233 248-133 0-240-95-240-256C38 85 140-11 270-11m4 66c-86 0-146 80-146 186 0 91 45 187 148 187 104 0 145-103 145-185 0-109-63-188-147-188z" horiz-adv-x="549" unicode="ό"/>
    <glyph d="M236 0h85v650h-75l-142-76 17-67 113 61h2z" horiz-adv-x="513" unicode="1"/>
    <glyph d="M177 0v390h-61l-94-44 11-52 72 35h2V0z" horiz-adv-x="244" unicode=""/>
    <glyph d="M151 0h85v650h-75L19 574l17-67 113 61h2z" horiz-adv-x="326" unicode=""/>
    <glyph d="M177-147v390h-61l-94-44 11-52 72 35h2v-329z" horiz-adv-x="244" unicode="₁"/>
    <glyph d="M177 266v390h-61l-94-44 11-52 72 35h2V266z" horiz-adv-x="244" unicode=""/>
    <glyph d="M263 0v485h-73L26 412l16-66 135 62h2V0z" horiz-adv-x="362" unicode=""/>
    <glyph d="M365 0v485h-73L78 393l15-65 186 83h2V0z" horiz-adv-x="530" unicode=""/>
    <glyph d="M184 266v390h-61l-94-44 11-52 72 35h2V266m61-277 379 672h-56L119-11M440 0h270v55H540v2l30 28c76 68 133 122 133 198 0 53-38 112-132 112-51 0-96-19-123-41l21-46c19 14 49 31 84 31 52 0 76-31 76-70 0-51-43-97-126-174l-63-58z" horiz-adv-x="759" unicode="½"/>
    <glyph d="M198 266v390h-61l-94-44 11-52 72 35h2V266m67-277 379 672h-56L138-11M663 0v103h60v49h-60v243h-73L397 142v-39h200V0m0 152H470l-1 1 96 125c11 17 20 34 33 55h2c-1-18-3-39-3-63z" horiz-adv-x="759" unicode="¼"/>
    <glyph d="M177 443v390h-61l-94-45 11-52 72 35h2V443z" horiz-adv-x="244" unicode="¹"/>
    <glyph d="M304 266c-3 24-5 51-5 78v107c0 72-27 140-127 140-43 0-85-12-114-33l16-42c23 17 53 26 85 26 66 0 75-46 75-62v-10c-129 3-201-42-201-113 0-53 37-96 103-96 47 0 82 23 102 47h2l5-42m-10 106c0-6-3-17-10-26-12-20-38-37-68-37-31 0-58 18-58 52 0 56 73 68 136 66z" horiz-adv-x="346" unicode="ª"/>
    <glyph d="M180 591c-87 0-162-64-162-168 0-98 70-162 159-162 77 0 159 52 160 167 0 94-61 163-157 163m-4-50c67 0 94-65 94-115 0-69-39-115-92-115-50 0-93 48-93 113 0 54 28 117 91 117z" horiz-adv-x="355" unicode="º"/>
    <glyph d="M277 494c-133 0-239-95-239-255 0-80 29-143 75-187L71-8l37-30 44 61c35-23 78-34 123-34 113 0 236 79 236 256 0 76-27 140-74 185l43 63-39 27-42-60c-36 23-79 34-122 34M161 119l-2 1c-25 35-35 78-35 121 0 87 43 187 150 187 35 0 63-10 85-29m30-38h2c26-39 34-85 34-119 0-108-61-187-153-187-30 0-57 8-81 28z" horiz-adv-x="549" unicode="ø"/>
    <glyph d="M277 494c-133 0-239-95-239-255 0-80 29-143 75-187L71-8l37-30 44 61c35-23 78-34 123-34 113 0 236 79 236 256 0 76-27 140-74 185l43 63-39 27-42-60c-36 23-79 34-122 34M161 119l-2 1c-25 35-35 78-35 121 0 87 43 187 150 187 35 0 63-10 85-29m30-38h2c26-39 34-85 34-119 0-108-61-187-153-187-30 0-57 8-81 28m124 610-88-143h62l122 143z" horiz-adv-x="549" unicode="ǿ"/>
    <glyph d="M278 494c-133 0-240-95-240-256C38 85 140-11 270-11c116 0 241 78 241 257 0 147-94 248-233 248m-2-66c104 0 145-103 145-185 0-109-63-188-147-188-86 0-146 80-146 186 0 91 45 187 148 187m-77 139c2 28 10 45 26 45 12 0 23-6 43-18 21-11 40-21 62-21 47 0 69 35 68 101h-47c-2-33-12-42-27-42-13 0-26 8-42 17-24 12-41 22-63 22-43 0-70-39-68-104z" horiz-adv-x="549" unicode="õ"/>
    <glyph d="M73-198h87V65h2c29-48 85-76 149-76 114 0 221 86 221 260 0 146-88 245-206 245-79 0-137-34-172-93h-2l-5 83H69c2-46 4-96 4-158m87-45c0 11 3 24 6 35 16 66 73 108 133 108 93 0 144-83 144-179 0-111-54-187-147-187-63 0-116 42-132 103-3 11-4 23-4 36z" horiz-adv-x="569" unicode="p"/>
    <glyph d="M293-49v665h71V-49h62v717c-25 5-64 8-117 8C90 676 33 559 34 455c2-129 111-190 190-190h7V-49z" horiz-adv-x="512" unicode="¶"/>
    <glyph d="M195 694C132 610 65 481 64 285c0-195 68-323 131-406h68C193-21 138 106 138 284c0 182 52 311 125 410z" horiz-adv-x="284" unicode="("/>
    <glyph d="M195 734C132 650 65 521 64 325 64 130 132 2 195-81h68C193 19 138 146 138 324c0 182 52 311 125 410z" horiz-adv-x="284" unicode=""/>
    <glyph d="M117 425c-36-48-77-126-77-243C40 67 81-10 117-59h51C129 0 96 76 96 182c0 107 32 186 72 243z" horiz-adv-x="180" unicode=""/>
    <glyph d="M117 278C81 230 40 152 40 35c0-115 41-192 77-241h51C129-147 96-71 96 35c0 107 32 186 72 243z" horiz-adv-x="180" unicode="₍"/>
    <glyph d="M117 691c-36-48-77-126-77-243 0-115 41-192 77-241h51c-39 59-72 135-72 241 0 107 32 186 72 243z" horiz-adv-x="180" unicode=""/>
    <glyph d="M117 868c-36-48-77-126-77-243 0-115 41-192 77-241h51c-39 59-72 135-72 241 0 107 32 186 72 243z" horiz-adv-x="180" unicode="⁽"/>
    <glyph d="M88-121c63 84 130 212 131 408 0 196-68 325-131 407H20c71-100 125-227 125-407S90-22 20-121z" horiz-adv-x="284" unicode=")"/>
    <glyph d="M88-81c63 84 130 212 131 408 0 196-68 325-131 407H20c71-100 125-227 125-407S90 18 20-81z" horiz-adv-x="284" unicode=""/>
    <glyph d="M64-59c36 50 77 127 77 242 0 117-41 194-77 242H13c40-58 72-136 72-242S52 0 13-59z" horiz-adv-x="180" unicode=""/>
    <glyph d="M64-206c36 50 77 127 77 242 0 117-41 194-77 242H13c40-58 72-136 72-242S52-147 13-206z" horiz-adv-x="180" unicode="₎"/>
    <glyph d="M64 207c36 50 77 127 77 242 0 117-41 194-77 242H13c40-58 72-136 72-242S52 266 13 207z" horiz-adv-x="180" unicode=""/>
    <glyph d="M64 384c36 50 77 127 77 242 0 117-41 194-77 242H13c40-58 72-136 72-242S52 443 13 384z" horiz-adv-x="180" unicode="⁾"/>
    <glyph d="M86 614c26 19 71 40 137 40 94 0 188-89 188-265 0-10 0-23-1-33h-1c-22 39-80 87-164 87-124 0-219-108-219-244C26 93 89-11 225-11c141 0 270 129 270 384 0 229-125 354-264 354-85 0-140-30-173-54M233 61c-71 0-119 53-119 140 0 98 65 172 145 172 70 0 123-47 141-96-14-114-78-216-167-216z" horiz-adv-x="375" unicode="∂"/>
    <glyph d="M188 661c-88 0-158-73-158-203 1-130 70-195 152-195 84 0 155 68 155 205 0 123-59 193-149 193m-5-53c62 0 85-65 85-145 0-85-26-147-84-147-55 0-87 63-85 146 0 81 30 146 84 146m48-620 383 674h-56L175-12m437 404c-88 0-158-73-158-203C455 58 524-7 606-7c84 0 155 68 155 205 0 124-59 194-149 194m-5-53c62 0 85-66 85-145 0-86-26-148-84-148-55 0-87 63-85 146 0 82 30 147 84 147z" horiz-adv-x="792" unicode="%"/>
    <glyph d="M186 603c-88 0-158-73-158-203 1-130 70-196 152-196 84 0 155 68 155 205 0 124-59 194-149 194m-5-53c62 0 85-66 85-145 0-86-26-148-84-148-55 0-86 64-85 146 0 82 30 147 84 147m80-562 351 620h-56L205-12m436 404c-88 0-158-73-158-203C484 58 553-7 635-7c84 0 155 68 155 205 0 124-59 194-149 194m-5-53c62 0 85-66 85-145 0-86-26-148-84-148-55 0-86 63-85 146 0 82 30 147 84 147z" horiz-adv-x="818" unicode=""/>
    <glyph d="M110-11c37 0 61 27 61 63 0 37-24 63-59 63S52 88 52 52s24-63 58-63z" horiz-adv-x="207" unicode="."/>
    <glyph d="M64-6c27 0 45 20 45 45 0 27-18 45-44 45-25 0-44-18-44-45C21 14 39-6 64-6z" horiz-adv-x="131" unicode=""/>
    <glyph d="M64-153c27 0 45 20 45 45 0 27-18 45-44 45-25 0-44-18-44-45 0-25 18-45 43-45z" horiz-adv-x="131" unicode=""/>
    <glyph d="M64 260c27 0 45 20 45 45 0 27-18 45-44 45-25 0-44-18-44-45 0-25 18-45 43-45z" horiz-adv-x="131" unicode=""/>
    <glyph d="M64 437c27 0 45 20 45 45 0 27-18 45-44 45-25 0-44-18-44-45 0-25 18-45 43-45z" horiz-adv-x="131" unicode=""/>
    <glyph d="M102 200c37 0 61 27 61 62 0 37-24 63-59 63s-60-26-60-63c0-35 24-62 58-62z" horiz-adv-x="207" unicode="·"/>
    <glyph d="M102 275c37 0 61 27 61 62 0 37-24 63-59 63s-60-26-60-63c0-35 24-62 58-62z" horiz-adv-x="207" unicode=""/>
    <glyph d="M188 661c-88 0-158-73-158-203 1-130 70-195 152-195 84 0 155 68 155 205 0 123-59 193-149 193m-5-53c62 0 85-65 85-145 0-85-26-147-84-147-55 0-87 63-85 146 0 81 30 146 84 146m48-620 383 674h-56L175-12m437 404c-88 0-158-73-158-203C455 58 524-7 606-7c84 0 155 68 155 205 0 124-59 194-149 194m-5-53c62 0 85-66 85-145 0-86-26-148-84-148-55 0-87 63-85 146 0 82 30 147 84 147m370 53c-88 0-158-73-158-203C820 58 889-7 971-7c84 0 155 68 155 205 0 124-59 194-149 194m-5-53c62 0 85-66 85-145 0-86-26-148-84-148-55 0-87 63-85 146 0 82 30 147 84 147z" horiz-adv-x="1156" unicode="‰"/>
    <glyph d="M204 498C137 470 38 385 38 245 38 73 162-1 282-10v-188h81v188C485 2 603 88 603 254c0 148-102 238-197 239-66 1-124-42-124-146V54c-105 16-157 96-157 193 0 104 61 169 113 202m125-88c0 46 17 68 42 68 56 0 114-78 114-176 0-113-61-187-156-200z" horiz-adv-x="642" unicode="φ"/>
    <glyph d="m520 416 9 68H153c-78 0-117-10-139-25l12-52c25 6 59 9 98 9C121 287 93 95 57 0h83c35 80 64 288 68 416h158V135c0-77 7-120 16-135h84c-7 25-13 65-13 144v272z" horiz-adv-x="555" unicode="π"/>
    <glyph d="M266 532V297H40v-60h226V0h64v237h226v60H330v235z" horiz-adv-x="596" unicode="+"/>
    <glyph d="M266 571V377H40v-60h226V117h64v200h226v60H330v194M40 60V0h516v60z" horiz-adv-x="596" unicode="±"/>
    <glyph d="M605 577v73H9v-73h93V-90h83v667h244V-90h83v667z" horiz-adv-x="615" unicode="∏"/>
    <glyph d="M295-198h81v187c172 9 233 160 233 304 0 90-19 160-39 191h-81c13-20 36-97 36-198 0-139-62-229-149-233v558h-81V53c-76 5-143 53-143 195v146c0 50-5 79-13 90H59c6-24 8-68 8-112V241C67 53 171-3 295-11z" horiz-adv-x="655" unicode="ψ"/>
    <glyph d="M403-198h87v549c0 50 2 93 4 133h-83l-3-73h-2c-24 46-74 83-149 83-102 0-219-79-219-261C38 86 130-11 243-11c78 0 131 38 158 85h2m0 123c0-13-3-30-7-43-20-60-69-95-126-95-97 0-143 83-143 180 0 108 55 185 146 185 66 0 112-46 126-100 3-11 4-24 4-36z" horiz-adv-x="563" unicode="q"/>
    <glyph d="m220 192-2 25c-3 51 13 96 57 148 48 57 86 106 86 174 0 76-52 147-167 147-53 0-109-16-143-40l24-63c25 19 65 31 101 31 63-1 95-35 95-86 0-45-25-84-70-137-50-60-68-120-62-173l2-26m37-203c37 0 60 27 60 62 0 37-23 63-59 63-34 0-59-26-59-63 0-35 24-62 58-62z" horiz-adv-x="406" unicode="?"/>
    <glyph d="M238 488c-36 0-60-26-60-63 0-35 24-62 59-62 36 0 59 27 59 62 0 37-23 63-58 63m-41-202 1-26c4-51-12-95-56-148C93 55 55 6 55-62c0-76 52-147 167-147 53 0 109 17 143 40l-23 63c-27-19-66-31-102-31-63 0-95 35-95 86 0 45 25 84 70 137 49 60 68 120 62 174l-3 26z" horiz-adv-x="406" unicode="¿"/>
    <glyph d="M238 683c-36 0-60-26-60-63 0-35 24-62 59-62 36 0 59 27 59 62 0 37-23 63-58 63m-41-202 1-26c4-51-12-95-56-148-49-57-87-106-87-174 0-76 52-147 167-147 53 0 109 17 143 40l-23 63c-27-19-66-31-102-31-63 0-95 35-95 86 0 45 25 84 70 137 49 60 68 120 62 174l-3 26z" horiz-adv-x="406" unicode=""/>
    <glyph d="m51 692 16-240h54l17 240m62 0 17-240h53l17 240z" horiz-adv-x="337" unicode="&quot;"/>
    <glyph d="M76-112c27 46 70 154 93 238l-90-10C68 44 42-59 20-118m204 6c27 46 70 154 93 238l-90-10c-11-72-38-175-59-234z" horiz-adv-x="356" unicode="„"/>
    <glyph d="M125 458c11 72 38 175 59 234l-56-6c-27-46-70-154-93-238m238 10c11 72 37 175 59 234l-56-6c-27-46-70-154-93-238z" horiz-adv-x="354" unicode="“"/>
    <glyph d="M93 682c-11-72-37-175-59-234l56 6c27 46 70 154 93 238m58-10c-11-72-38-175-59-234l56 6c27 46 70 154 93 238z" horiz-adv-x="354" unicode="”"/>
    <glyph d="M125 458c11 72 38 175 59 234l-56-6c-27-46-70-154-93-238z" horiz-adv-x="207" unicode="‘"/>
    <glyph d="M93 682c-11-72-38-175-59-234l56 6c27 46 70 154 93 238z" horiz-adv-x="207" unicode="’"/>
    <glyph d="M77-112c27 46 70 154 93 238l-90-10C69 44 42-59 21-118z" horiz-adv-x="207" unicode="‚"/>
    <glyph d="m51 692 16-240h54l17 240z" horiz-adv-x="188" unicode="'"/>
    <glyph d="M73 0h88v258c0 14 1 29 3 41 12 66 56 112 118 112 12 0 21 0 30-2v83c-8 1-15 2-24 2-59 0-113-41-135-106h-3l-4 96H69c3-45 4-94 4-151z" horiz-adv-x="327" unicode="r"/>
    <glyph d="M73 0h88v258c0 14 1 29 3 41 12 66 56 112 118 112 12 0 21 0 30-2v83c-8 1-15 2-24 2-59 0-113-41-135-106h-3l-4 96H69c3-45 4-94 4-151m144 360-88-143h62l122 143z" horiz-adv-x="327" unicode="ŕ"/>
    <glyph d="M578 827h-66L327 60c-6-22-11-47-14-64h-1c-4 18-11 42-19 64L170 405 32 348l19-47 74 31L285-95h63z" horiz-adv-x="562" unicode="√"/>
    <glyph d="M73 0h88v258c0 14 1 29 3 41 12 66 56 112 118 112 12 0 21 0 30-2v83c-8 1-15 2-24 2-59 0-113-41-135-106h-3l-4 96H69c3-45 4-94 4-151m141 217 94 143h-66l-59-95h-2l-59 95H55l96-143z" horiz-adv-x="327" unicode="ř"/>
    <glyph d="M73 0h88v258c0 14 1 29 3 41 12 66 56 112 118 112 12 0 21 0 30-2v83c-8 1-15 2-24 2-59 0-113-41-135-106h-3l-4 96H69c3-45 4-94 4-151M60-222c62 4 129 34 129 107 0 33-20 61-40 74L84-55c18-14 34-37 34-61 0-39-36-59-75-65z" horiz-adv-x="327" unicode="ŗ"/>
    <glyph d="M184 499h18c21 0 31-8 34-25 5-20 8-34 13-40h40c-3 6-7 15-12 40-5 22-13 35-29 40v2c19 6 34 19 34 39 0 16-7 28-17 35-11 8-25 13-56 13-27 0-48-3-63-5V434h38m1 139c4 1 11 2 21 2 24 0 35-10 35-25 0-17-17-24-38-24h-18m26 157c-95 0-170-72-170-164s75-165 169-165 168 73 168 165-74 164-167 164m-2-33c73 0 127-59 127-132 0-72-54-131-125-130-73 0-128 58-128 131 0 72 55 131 126 131z" horiz-adv-x="419" unicode="®"/>
    <glyph d="M157 60c29-45 84-71 147-71 115 0 222 89 222 260 0 145-87 245-222 245-73 0-129-31-166-71-38-40-70-96-70-221V-22c0-75 3-146 11-176h84c-7 40-8 125-8 180v78m0 170c0 134 73 192 142 192 90 0 140-80 140-176 0-108-54-188-147-188-62 0-115 42-131 97-3 11-4 23-4 35z" horiz-adv-x="563" unicode="ρ"/>
    <glyph d="M142 537c57 0 100 39 100 91 0 54-39 94-99 94-62 0-102-41-102-94 0-51 42-91 101-91m0 37c-30 0-50 27-50 54 0 31 18 57 49 57 32 0 52-25 52-56 0-30-20-55-51-55z" horiz-adv-x="300" unicode="˚"/>
    <glyph d="M202 877c-63 0-101-41-101-91 0-49 40-88 100-88 59 0 100 38 100 88 0 51-38 91-99 91m-3-36c31 0 50-24 50-53 0-30-19-53-49-53-29 0-48 25-48 51 0 29 18 55 47 55z" horiz-adv-x="400" unicode=""/>
    <glyph d="M40 23c34-20 83-34 136-34 113 0 180 60 180 146 0 72-44 114-127 145-63 25-91 43-91 83 0 36 28 66 80 66 45 0 80-17 99-29l21 64c-26 17-69 30-118 30-103 0-167-64-167-142 0-58 41-105 129-137 64-24 89-46 89-88 0-41-30-72-93-72-44 0-90 18-117 34z" horiz-adv-x="396" unicode="s"/>
    <glyph d="M40 23c34-20 83-34 136-34 113 0 180 60 180 146 0 72-44 114-127 145-63 25-91 43-91 83 0 36 28 66 80 66 45 0 80-17 99-29l21 64c-26 17-69 30-118 30-103 0-167-64-167-142 0-58 41-105 129-137 64-24 89-46 89-88 0-41-30-72-93-72-44 0-90 18-117 34m183 604-87-143h62l122 143z" horiz-adv-x="396" unicode="ś"/>
    <glyph d="M40 23c34-20 83-34 136-34 113 0 180 60 180 146 0 72-44 114-127 145-63 25-91 43-91 83 0 36 28 66 80 66 45 0 80-17 99-29l21 64c-26 17-69 30-118 30-103 0-167-64-167-142 0-58 41-105 129-137 64-24 89-46 89-88 0-41-30-72-93-72-44 0-90 18-117 34m174 461 94 143h-66l-59-95h-2l-59 95H76l96-143z" horiz-adv-x="396" unicode="š"/>
    <glyph d="M40 23c39-22 88-33 128-33h3l-40-71c47-4 78-16 78-42 1-23-21-31-43-31-17 0-37 5-54 14l-15-43c17-10 44-17 68-17 56 0 105 22 105 81 0 39-34 64-70 69l27 45c82 15 129 69 129 140 0 72-44 114-127 145-63 25-91 43-91 83 0 36 28 66 80 66 45 0 80-17 99-28l21 63c-26 17-69 30-118 30-103 0-167-64-167-142 0-57 41-105 129-137 64-24 89-46 89-88 0-41-30-72-93-72-44 0-90 18-117 34z" horiz-adv-x="396" unicode="ş"/>
    <glyph d="M40 23c39-22 88-33 128-33h3l-40-71c47-4 78-16 78-42 1-23-21-31-43-31-17 0-37 5-54 14l-15-43c17-10 44-17 68-17 56 0 105 22 105 81 0 39-34 64-70 69l27 45c82 15 129 69 129 140 0 72-44 114-127 145-63 25-91 43-91 83 0 36 28 66 80 66 45 0 80-17 99-28l21 63c-26 17-69 30-118 30-103 0-167-64-167-142 0-57 41-105 129-137 64-24 89-46 89-88 0-41-30-72-93-72-44 0-90 18-117 34z" horiz-adv-x="268" unicode=""/>
    <glyph d="M40 23c34-20 83-34 136-34 113 0 180 60 180 146 0 72-44 114-127 145-63 25-91 43-91 83 0 36 28 66 80 66 45 0 80-17 99-29l21 64c-26 17-69 30-118 30-103 0-167-64-167-142 0-58 41-105 129-137 64-24 89-46 89-88 0-41-30-72-93-72-44 0-90 18-117 34m108 604L75 550h66l57 94h2l59-94h67l-96 143z" horiz-adv-x="396" unicode="ŝ"/>
    <glyph d="M40 23c34-20 83-34 136-34 113 0 180 60 180 146 0 72-44 114-127 145-63 25-91 43-91 83 0 36 28 66 80 66 45 0 80-17 99-29l21 64c-26 17-69 30-118 30-103 0-167-64-167-142 0-58 41-105 129-137 64-24 89-46 89-88 0-41-30-72-93-72-44 0-90 18-117 34m75-311c62 4 129 34 129 107 0 33-20 61-40 74l-65-14c18-14 34-37 34-61 0-39-36-59-75-65z" horiz-adv-x="396" unicode="ș"/>
    <glyph d="M131 350c0 31 13 56 45 79 33-20 84-36 123-51 65-23 89-55 89-93 0-31-14-59-38-77-23 15-63 30-114 48-79 29-105 59-105 94m287 300c-34 19-82 33-138 33-103 0-184-54-184-142 0-34 16-68 37-83-53-35-74-80-74-118 0-85 72-122 174-157 93-33 122-58 122-105 0-52-48-81-111-81-60 0-109 23-133 40L87-20c38-28 97-42 157-42 94 0 190 46 190 150 0 41-22 74-38 89 39 30 64 68 64 121 0 90-70 127-162 157-75 25-125 44-125 96 0 45 45 74 104 74 54 0 94-16 119-32z" horiz-adv-x="519" unicode="§"/>
    <glyph d="M78-116c28 47 72 157 96 243l-97-10C66 43 39-63 17-123m101 465c37 0 60 27 60 62 0 37-23 63-59 63-34 0-59-26-59-63 0-35 24-62 58-62z" horiz-adv-x="207" unicode=";"/>
    <glyph d="M57 650v-73h318v-2L93 0h91l283 592v58z" horiz-adv-x="513" unicode="7"/>
    <glyph d="M19 388v-55h192v-1L40 0h70l172 345v43z" horiz-adv-x="294" unicode=""/>
    <glyph d="M1 650v-73h318v-2L37 0h91l283 592v58z" horiz-adv-x="412" unicode=""/>
    <glyph d="M19 241v-55h192v-1L40-147h70l172 345v43z" horiz-adv-x="294" unicode="₇"/>
    <glyph d="M19 654v-55h192v-1L40 266h70l172 345v43z" horiz-adv-x="294" unicode=""/>
    <glyph d="M405 485H18v-73h297v-2C262 270 122 21 41-98l82-15C224 43 343 266 405 429z" horiz-adv-x="428" unicode=""/>
    <glyph d="M19 831v-55h192v-1L40 443h70l172 345v43z" horiz-adv-x="294" unicode="⁷"/>
    <glyph d="M454 485H67v-73h297v-2C311 270 171 21 90-98l82-15C273 43 392 266 454 429z" horiz-adv-x="530" unicode=""/>
    <glyph d="M412 431c71-3 104-3 127-3l3 67c-18-2-76-1-109-1H287c-146 0-249-95-249-257C38 84 140-11 270-11c110 0 232 78 232 256 0 73-33 143-90 183M273 55c-84 0-145 80-145 186 0 91 45 187 145 187s142-102 142-183c0-110-63-190-142-190z" horiz-adv-x="554" unicode="σ"/>
    <glyph d="M416 660c-16 0-38-1-64-5-82-10-154-43-208-96C79 495 34 394 34 266 34 97 125-11 263-11c136 0 217 110 217 230 0 126-81 210-196 210-72 0-127-34-158-76h-2c15 108 87 208 226 230 25 4 48 6 66 5M265 57c-93 0-143 80-144 187 0 16 4 28 9 38 24 48 74 80 127 80 81 0 134-56 134-149S340 57 265 57z" horiz-adv-x="513" unicode="6"/>
    <glyph d="M267 394c-10 0-24-1-39-2-57-6-103-24-138-57-40-38-67-99-67-173C23 65 78-5 171-5c81 0 138 62 138 139 0 75-50 125-122 125-42 0-75-20-94-41h-2c11 60 56 111 136 122 15 2 30 2 40 1M171 46c-54 0-82 45-82 99 0 9 2 15 5 21 13 26 40 45 71 45 47 0 76-32 76-81 0-48-28-84-70-84z" horiz-adv-x="332" unicode=""/>
    <glyph d="M418 660c-16 0-38-1-64-5-82-10-154-43-208-96C81 495 36 394 36 266 36 97 127-11 265-11c136 0 217 110 217 230 0 126-81 210-196 210-72 0-127-34-158-76h-2c15 108 87 208 226 230 25 4 48 6 66 5M267 57c-93 0-143 80-144 187 0 16 4 28 9 38 24 48 74 80 127 80 81 0 134-56 134-149S342 57 267 57z" horiz-adv-x="515" unicode=""/>
    <glyph d="M267 247c-10 0-24-1-39-2-57-5-103-24-138-57-40-38-67-99-67-173 0-97 55-167 148-167 81 0 138 62 138 139 0 75-50 125-122 125-42 0-75-20-94-41h-2c11 60 56 111 136 122 15 2 30 2 40 1m-96-295c-54 0-82 45-82 99 0 9 2 15 5 21 13 26 40 45 71 45 47 0 76-32 76-81 0-48-28-84-70-84z" horiz-adv-x="332" unicode="₆"/>
    <glyph d="M267 660c-10 0-24-1-39-2-57-6-103-24-138-57-40-38-67-99-67-173 0-97 55-167 148-167 81 0 138 62 138 139 0 75-50 125-122 125-42 0-75-20-94-41h-2c11 60 56 111 136 122 15 2 30 2 40 1m-96-295c-54 0-82 45-82 99 0 9 2 15 5 21 13 26 40 45 71 45 47 0 76-32 76-81 0-48-28-84-70-84z" horiz-adv-x="332" unicode=""/>
    <glyph d="M432 606C192 593 46 443 46 236 46 88 135-11 269-11c104 0 208 79 208 214 0 119-85 191-187 191-69 0-121-37-146-73l-3 1c22 113 117 208 297 219M270 56c-83 0-135 69-135 150 0 33 8 58 32 83 19 20 56 43 101 43 73 0 122-52 122-134 0-95-61-142-120-142z" horiz-adv-x="520" unicode=""/>
    <glyph d="M267 837c-10 0-24-1-39-2-57-6-103-24-138-57-40-38-67-99-67-173 0-98 55-168 148-168 81 0 138 62 138 139 0 76-50 126-122 126-42 0-75-20-94-41h-2c11 60 56 111 136 122 15 2 30 2 40 1m-96-296c-54 0-82 45-82 99 0 9 2 16 5 22 13 26 40 45 71 45 47 0 76-32 76-82 0-48-28-84-70-84z" horiz-adv-x="332" unicode="⁶"/>
    <glyph d="M441 606C202 593 56 443 56 236 56 88 145-11 278-11c104 0 208 79 208 214 0 119-85 191-186 191-70 0-121-37-146-73l-3 1c22 113 116 208 296 219M279 56c-82 0-134 69-134 150 0 33 8 58 32 83 19 20 55 43 101 43 72 0 121-52 121-134 0-95-61-142-120-142z" horiz-adv-x="530" unicode=""/>
    <glyph d="m66-39 280 725h-69L-1-39z" horiz-adv-x="343" unicode="/"/>
    <glyph horiz-adv-x="212"/>
    <glyph d="M150-80c-28 0-51-23-51-52 0-27 21-51 50-51 30 0 50 24 50 51 0 29-21 52-49 52z" horiz-adv-x="300" unicode=""/>
    <glyph d="M150-181c28 0 49 24 49 51 0 26-21 50-48 50-28 0-50-24-50-50 0-27 21-51 49-51z" horiz-adv-x="300" unicode=""/>
    <glyph d="M161 530c23 45 75 61 75 117 0 44-37 75-84 75-50 0-80-31-98-67l34-20c12 18 27 35 49 35 18 0 33-13 33-34 0-37-44-50-56-94z" horiz-adv-x="300" unicode=""/>
    <glyph d="M169 709c26 46 71 57 71 108 0 41-37 72-83 72-51 0-81-31-99-67l34-20c11 17 28 35 49 35 20 0 33-12 33-31 0-33-36-41-52-84z" horiz-adv-x="300" unicode=""/>
    <glyph d="m-2 686 116-142h55L89 686m60 0 115-142h56l-81 142z" horiz-adv-x="300" unicode=""/>
    <glyph d="M-45 828 83 711h66L58 828m71 0 127-117h67l-92 117z" horiz-adv-x="300" unicode=""/>
    <glyph d="M173 433h31c62 0 99 37 99 87 0 27-7 52-18 72l-67-11c11-18 17-39 17-58 0-25-12-39-47-39h-15z" horiz-adv-x="300" unicode=""/>
    <glyph d="M173 621h30c67 0 100 35 100 86 0 29-7 53-17 75l-68-12c11-18 17-39 17-58 0-26-12-38-47-38h-15z" horiz-adv-x="300" unicode=""/>
    <glyph d="M93-222c62 4 129 34 129 107 0 33-20 61-40 74l-65-14c18-14 34-37 34-61 0-39-36-59-75-65z" horiz-adv-x="300" unicode=""/>
    <glyph d="M93-222c62 4 129 34 129 107 0 33-20 61-40 74l-65-14c18-15 34-37 34-61 0-39-36-59-75-65z" horiz-adv-x="300" unicode=""/>
    <glyph d="M471 0v73H173v2c34 29 58 65 69 108 9 36 7 74 4 112h136v63H238c-6 32-11 64-11 107 0 71 31 125 109 125 42 0 72-10 90-20l19 66c-21 13-57 25-109 25-111 0-192-77-192-195 0-39 6-78 11-108H62v-63h103c4-26 5-46 5-70 0-75-47-141-114-175V0z" horiz-adv-x="513" unicode="£"/>
    <glyph d="M478 0v71H187v2c36 24 62 64 63 117 0 10-1 21-3 32h139v55H237c-4 19-7 40-7 61 0 77 36 126 109 126 41 0 72-10 90-20l19 64c-22 13-59 25-109 25-115 0-192-79-192-194 0-20 4-41 8-62H69v-55h97c2-14 4-29 4-44 0-54-41-100-107-128V0z" horiz-adv-x="530" unicode=""/>
    <glyph d="M514-90v73H122v4l234 294-222 293v4h349v72H22v-58l238-314L9-37v-53z" horiz-adv-x="507" unicode="∑"/>
    <glyph d="M93 574v-90H18v-67h75V153c0-57 10-100 34-127 21-23 54-37 95-37 34 0 61 6 78 12l-4 67c-13-4-27-6-51-6-49 0-66 34-66 94v261h126v67H179v116z" horiz-adv-x="331" unicode="t"/>
    <glyph d="M321 60c-5-1-12-1-21-1-29 0-55 16-55 82v275h149l11 68H126c-79 0-115-13-131-25l11-51c21 4 47 8 98 8h53V139c0-102 34-150 112-150 19 0 39 3 48 9z" horiz-adv-x="413" unicode="τ"/>
    <glyph d="M305 417v67H179v116l-86-26v-90H18v-67h75V302H27v-54h66v-95c0-57 10-100 34-127 21-23 54-37 95-37 34 0 61 6 78 12l-4 67c-13-4-27-6-51-6-47 0-66 32-66 90v96h98v54h-98v115z" horiz-adv-x="331" unicode="ŧ"/>
    <glyph d="M93 573v-89H18v-67h75V153c0-57 10-100 34-127 21-23 54-37 95-37 34 0 62 6 79 12l-4 67c-14-4-28-6-51-6-50 0-67 34-67 94v261h127v67H179v116m98-59c25 10 81 44 81 112 0 32-18 58-35 69l-64-13c17-14 30-36 30-58 0-37-20-62-38-75z" horiz-adv-x="339" unicode="ť"/>
    <glyph d="M93 574v-90H18v-67h75V153c0-57 10-100 34-127 21-23 54-37 95-37 34 0 61 6 78 12l-4 67c-13-4-27-6-51-6-49 0-66 34-66 94v261h126v67H179v116m-57-827c62 4 129 34 129 107 0 33-20 61-40 74l-65-14c18-14 34-37 34-61 0-39-36-59-75-65z" horiz-adv-x="331" unicode="ţ"/>
    <glyph d="M268-11c156 0 228 147 228 372 0 215-70 360-224 360-152 0-234-156-234-360 0-247 88-372 230-372M125 399c0 136 53 257 142 257 97 0 142-115 142-257m1-65c0-164-45-280-139-280-86 0-146 102-146 280z" horiz-adv-x="534" unicode="θ"/>
    <glyph d="M73 669v-867h87V65h2c31-48 85-76 149-76 110 0 221 82 221 259 0 150-91 247-205 246-79 0-133-35-165-87h-2v262m0-389c0 16 5 35 10 49 20 59 74 95 130 95 91 0 143-82 143-178 0-115-58-188-145-188-58 0-109 34-129 89-6 12-9 30-9 44z" horiz-adv-x="569" unicode="þ"/>
    <glyph d="M42 33c32-21 96-44 169-44 155 0 237 91 237 195-1 91-65 151-145 166v2c79 29 120 86 120 154 0 79-58 155-186 155-70 0-136-25-171-50l24-64c28 20 78 43 130 43 81 0 114-46 114-98 0-77-81-110-145-110h-49v-66h49c85 0 167-39 168-130 1-55-35-126-147-126-62 0-119 25-144 40z" horiz-adv-x="513" unicode="3"/>
    <glyph d="M45 316c16 11 49 27 85 27 45 0 63-25 63-50 0-46-54-63-91-63H74v-46h27c53 1 106-19 106-70 1-31-26-67-88-67-37 0-77 15-93 26L8 23C31 8 75-5 123-5c102 0 158 55 158 117 0 51-39 89-93 97v2c48 16 77 49 77 90 0 48-36 94-122 94-49 0-92-16-115-31z" horiz-adv-x="305" unicode=""/>
    <glyph d="M7 33c32-21 96-44 169-44 155 0 237 91 237 195-1 91-65 151-145 166v2c79 29 120 86 120 154 0 79-58 155-186 155-70 0-136-25-171-50l24-64c28 20 78 43 130 43 81 0 114-46 114-98 0-77-81-110-145-110h-49v-66h49c85 0 167-39 168-130 1-55-35-126-147-126-62 0-119 25-144 40z" horiz-adv-x="450" unicode=""/>
    <glyph d="M45 169c16 11 49 27 85 27 45 0 63-25 63-50 0-46-54-63-91-63H74V37h27c53 1 106-19 106-70 1-31-26-67-88-67-37 0-77 15-93 26L8-124c23-15 67-28 115-28 102 0 158 55 158 117 0 51-39 89-93 97v2c48 16 77 49 77 90 0 48-36 94-122 94-49 0-92-16-115-31z" horiz-adv-x="305" unicode="₃"/>
    <glyph d="M45 582c16 11 49 27 85 27 45 0 63-25 63-50 0-46-54-63-91-63H74v-46h27c53 1 106-19 106-70 1-31-26-67-88-67-37 0-77 15-93 26L8 289c23-15 67-28 115-28 102 0 158 55 158 117 0 51-39 89-93 97v2c48 16 77 49 77 90 0 48-36 94-122 94-49 0-92-16-115-31z" horiz-adv-x="305" unicode=""/>
    <glyph d="M18-95c22-10 75-20 127-20 135 0 251 76 251 191 0 85-68 133-147 144v3c68 20 118 70 118 139 0 83-72 134-174 134-66 0-129-24-160-45l18-58c24 13 72 34 123 34 65 0 105-26 105-80 0-62-70-99-163-106l-19-1 2-65c12 1 32 2 55 2 92 0 152-39 152-102 0-73-70-121-169-121-42 0-84 8-109 16z" horiz-adv-x="433" unicode=""/>
    <glyph d="M62-95c22-10 75-20 127-20 135 0 251 76 251 191 0 85-68 133-147 144v3c68 20 118 70 118 139 0 83-72 134-174 134-66 0-129-24-160-45l18-58c24 13 72 34 123 34 65 0 105-26 105-80 0-62-70-99-163-106l-19-1 2-65c12 1 32 2 55 2 92 0 152-39 152-102 0-73-70-121-169-121-42 0-84 8-109 16z" horiz-adv-x="530" unicode=""/>
    <glyph d="M66 582c16 11 48 27 84 27 46 0 64-25 64-50 0-46-54-63-91-63H96v-46h27c53 1 106-19 106-70 1-31-26-67-88-67-37 0-77 15-93 26l-18-50c23-15 67-28 115-28 102 0 158 55 158 117 0 51-39 89-93 97v2c47 16 76 49 76 90 0 48-36 94-123 94-49 0-91-16-114-32M232-11l379 672h-56L175-11M674 0v103h60v49h-60v243h-73L408 142v-39h200V0m0 152H480l-1 1 97 125c11 16 20 33 33 55h2c-1-18-3-39-3-63z" horiz-adv-x="759" unicode="¾"/>
    <glyph d="M45 759c16 11 49 27 85 27 45 0 63-25 63-50 0-46-54-63-91-63H74v-46h27c53 0 106-20 106-71 1-31-26-67-88-67-37 0-77 16-93 26L8 465c23-15 67-28 115-28 102 0 158 56 158 117 0 51-39 89-93 97v2c48 17 77 50 77 91 0 48-36 94-122 94-49 0-92-16-115-31z" horiz-adv-x="305" unicode="³"/>
    <glyph d="M75 567c2 28 10 45 26 45 12 0 23-6 43-18 21-11 40-21 62-21 47 0 69 35 68 101h-47c-2-33-12-42-27-42-13 0-27 8-43 17-23 12-40 22-62 22-43 0-70-39-68-104z" horiz-adv-x="300" unicode="˜"/>
    <glyph d="M73 715c3 27 10 44 26 44 15 0 28-9 47-19 22-11 40-19 61-19 46 0 68 34 67 97h-46c-3-32-12-39-27-39-16 0-32 9-48 18-21 11-37 20-59 20-43 0-69-41-68-102z" horiz-adv-x="300" unicode=""/>
    <glyph d="M137 694 84 551h59l83 143z" horiz-adv-x="301" unicode="΄"/>
    <glyph d="M31 674v-45h86V402h54v227h87v45m348-272-21 272h-78l-47-135c-6-19-12-43-19-67h-1c-7 28-11 48-18 69l-47 133h-81l-20-272h52l10 160c1 25 2 51 2 76h3c6-24 14-57 19-77l49-155h56l49 151c7 25 16 57 23 81h3c1-29 1-55 2-76l10-160z" horiz-adv-x="619" unicode="™"/>
    <glyph d="M460 0v73H169v2l51 48c137 132 224 229 224 349 0 93-59 189-199 189-74 0-139-29-183-66l28-62c30 25 79 55 138 55 97 0 128-61 128-127 0-98-76-182-242-340L45 54V0z" horiz-adv-x="513" unicode="2"/>
    <glyph d="M12 0h270v55H112v2l30 28c76 67 133 122 133 198 0 53-38 112-132 112-51 0-96-19-123-41l21-46c19 14 49 31 84 31 52 0 76-31 76-70 0-51-43-97-126-174L12 37z" horiz-adv-x="311" unicode=""/>
    <glyph d="M418 0v73H127v2l51 48c137 132 224 229 224 349 0 93-59 189-199 189-74 0-139-29-183-66l28-62c30 25 79 55 138 55 97 0 128-61 128-127 0-98-76-182-242-340L3 54V0z" horiz-adv-x="447" unicode=""/>
    <glyph d="M12-147h270v55H112v2l30 28C218 5 275 60 275 136c0 53-38 112-132 112-51 0-96-19-123-42l21-45c19 14 49 31 84 31 52 0 76-32 76-70 0-51-43-97-126-174l-63-58z" horiz-adv-x="311" unicode="₂"/>
    <glyph d="M12 266h270v55H112v2l30 28c76 67 133 122 133 198 0 53-38 112-132 112-51 0-96-19-123-41l21-46c19 14 49 31 84 31 52 0 76-31 76-70 0-51-43-97-126-174l-63-58z" horiz-adv-x="311" unicode=""/>
    <glyph d="M420 0v70H239c-26 0-57-1-82-4v3l51 37c105 74 177 143 177 236 0 99-72 156-173 156-81 0-146-35-182-62l24-57c34 25 84 49 135 49 63 0 108-33 108-98 0-81-74-149-224-248L24 48V0z" horiz-adv-x="448" unicode=""/>
    <glyph d="M462 0v70H281c-26 0-57-1-82-4v3l51 37c105 74 177 143 177 236 0 99-72 156-173 156-81 0-146-35-182-62l24-57c34 25 84 49 135 49 63 0 108-33 108-98 0-81-74-149-224-248L66 48V0z" horiz-adv-x="530" unicode=""/>
    <glyph d="M12 443h270v55H112v2l30 28c76 67 133 122 133 197 0 53-38 112-132 112-51 0-96-19-123-41l21-46c19 14 49 31 84 31 52 0 76-31 76-69 0-51-43-98-126-174l-63-58z" horiz-adv-x="311" unicode="²"/>
    <glyph d="M478 484h-88V188c0-17-3-33-8-45-16-40-57-81-116-81-79 0-108 63-108 155v267H70V201C70 32 161-11 237-11c86 0 138 51 160 90h2l5-79h78c-3 38-4 82-4 133z" horiz-adv-x="551" unicode="u"/>
    <glyph d="M478 484h-88V188c0-17-3-33-8-45-16-40-57-81-116-81-79 0-108 63-108 155v267H70V201C70 32 161-11 237-11c86 0 138 51 160 90h2l5-79h78c-3 38-4 82-4 133M321 693l-88-143h62l122 143z" horiz-adv-x="551" unicode="ú"/>
    <glyph d="M478 484h-88V188c0-17-3-33-8-45-16-40-57-81-116-81-79 0-108 63-108 155v267H70V201C70 32 161-11 237-11c86 0 138 51 160 90h2l5-79h78c-3 38-4 82-4 133M151 682c0-63 36-125 124-125 75 0 124 50 124 125h-52c-3-34-25-69-73-69-40 0-65 30-71 69z" horiz-adv-x="551" unicode="ŭ"/>
    <glyph d="M478 484h-88V188c0-17-3-33-8-45-16-40-57-81-116-81-79 0-108 63-108 155v267H70V201C70 32 161-11 237-11c86 0 138 51 160 90h2l5-79h78c-3 38-4 82-4 133M244 693l-94-143h66l58 94h2l58-94h67l-96 143z" horiz-adv-x="551" unicode="û"/>
    <glyph d="M478 484h-88V188c0-17-3-33-8-45-16-40-57-81-116-81-79 0-108 63-108 155v267H70V201C70 32 161-11 237-11c86 0 138 51 160 90h2l5-79h78c-3 38-4 82-4 133M185 570c30 0 50 24 50 51 0 29-21 51-48 51-29 0-51-23-51-51 0-27 21-51 49-51m185 0c30 0 50 24 50 51 0 29-21 51-49 51s-50-23-50-51c0-27 20-51 49-51z" horiz-adv-x="551" unicode="ü"/>
    <glyph d="M478 484h-88V188c0-17-3-33-8-45-16-40-57-81-116-81-79 0-108 63-108 155v267H70V201C70 32 161-11 237-11c86 0 138 51 160 90h2l5-79h78c-3 38-4 82-4 133M140 693l122-143h62l-88 143z" horiz-adv-x="551" unicode="ù"/>
    <glyph d="M489 581c11-18 18-38 18-57 0-26-13-40-47-40h-70V188c0-17-3-33-8-45-16-40-57-81-116-81-79 0-108 62-108 154v268H70V201C70 32 161-11 237-11c86 0 138 51 160 90h2l5-79h78c-3 38-4 82-4 132v304h11c49 2 85 35 85 85 0 26-7 51-18 72z" horiz-adv-x="551" unicode="ư"/>
    <glyph d="M478 484h-88V188c0-17-3-33-8-45-16-40-57-81-116-81-79 0-108 63-108 155v267H70V201C70 32 161-11 237-11c86 0 138 51 160 90h2l5-79h78c-3 38-4 82-4 133M246 693l-79-136h55l110 136m58 0-79-136h55l110 136z" horiz-adv-x="551" unicode="ű"/>
    <glyph d="M478 484h-88V188c0-17-3-33-8-45-16-40-57-81-116-81-79 0-108 63-108 155v267H70V201C70 32 161-11 237-11c86 0 138 51 160 90h2l5-79h78c-3 38-4 82-4 133M163 643v-57h225v57z" horiz-adv-x="551" unicode="ū"/>
    <glyph d="M0-75v-50h500v50z" horiz-adv-x="500" unicode="_"/>
    <glyph horiz-adv-x="212"/>
    <glyph d="M30 302v-64h247v64z" horiz-adv-x="291" unicode="­"/>
    <glyph d="M204 0h88v600h206v74H-1v-74h205m-24-822c62 4 129 34 129 107 0 33-20 61-40 74l-65-14c18-15 34-37 34-61 0-39-36-59-75-65z" horiz-adv-x="497" unicode="Ț"/>
    <glyph d="M93 574v-90H18v-67h75V153c0-57 10-100 34-127 21-23 54-37 95-37 34 0 61 6 78 12l-4 67c-13-4-27-6-51-6-49 0-66 34-66 94v261h126v67H179v116m-57-827c62 4 129 34 129 107 0 33-20 61-40 74l-65-14c18-14 34-37 34-61 0-39-36-59-75-65z" horiz-adv-x="331" unicode="ț"/>
    <glyph d="M63-115C293-88 441 34 441 187c0 108-78 175-179 184v3c68 31 123 89 123 164 0 88-74 148-182 148-68 0-140-27-172-47l18-59c25 13 84 36 137 36 65-1 111-37 111-92 0-79-88-141-201-166l12-62c34 11 73 17 94 17 94 2 147-58 147-131C349 64 212-23 52-46z" horiz-adv-x="480" unicode="Ȝ"/>
    <glyph d="M43-209C276-190 400-73 400 57c0 88-63 146-155 157v2c63 26 106 75 106 141 0 83-68 137-169 137-65 0-126-25-163-49l19-58c24 13 72 38 123 38 64 0 104-31 104-84 0-73-77-113-184-138l12-62c28 8 61 15 88 15 89 0 129-50 129-109 0-155-237-185-275-188z" horiz-adv-x="427" unicode="ȝ"/>
    <glyph d="M314 0v287l225 387h-98l-97-186c-26-51-50-95-68-139h-2c-21 47-42 88-67 139l-95 186H12l214-388V0m-75 788v-55h240v55z" horiz-adv-x="541" unicode="Ȳ"/>
    <glyph d="M9 484 187 38c5-11 7-18 7-23s-3-12-7-21c-21-45-50-79-74-98-26-22-55-36-77-43l22-73c22 4 64 19 108 56 60 53 103 137 166 303l132 345h-93l-96-284c-12-35-22-72-31-101h-2c-8 29-20 67-32 99L105 484m19 159v-57h225v57z" horiz-adv-x="471" unicode="ȳ"/>
    <glyph d="M38 643v-57h225v57z" horiz-adv-x="300" unicode="ˉ"/>
    <glyph d="M92-116c23 47 64 157 81 235l-97-5C70 43 47-63 30-123m88 446c39 0 64 29 64 66 0 39-25 66-62 66s-63-28-63-66c0-37 25-66 61-66z" horiz-adv-x="217" unicode=";"/>
    <glyph d="M26 0h565v50L359 674h-99L26 50m93 23 141 384c16 47 35 103 44 137h3c12-43 33-103 50-150L494 73z" horiz-adv-x="620" unicode="Δ"/>
    <glyph d="M528 72c67 57 133 156 133 295 0 178-117 319-304 319-179 0-314-135-314-328 1-129 66-230 133-286v-3H30V0h254v55c-80 50-150 170-150 296 0 133 79 264 221 264 143 0 216-139 216-262 0-136-69-243-149-298V0h253v69H528z" horiz-adv-x="705" unicode="Ω"/>
    <glyph d="M403 75c8-62 43-86 86-86 15 0 20 1 31 4l7 64c-36 2-46 23-46 76v351h-88V188c0-17-3-33-8-46-16-40-57-81-115-81-78 0-109 62-109 137v286H73V-19c0-78 4-149 14-179h79c-9 40-11 129-11 183v59C176 7 217-9 261-9c72 0 119 46 139 84z" horiz-adv-x="553" unicode="μ"/>
    <glyph d="M408 472c-26 14-66 22-109 22-168 0-261-131-261-260C38 104 118 32 220 4c29-8 66-16 99-21-2-24-19-86-33-109l59-18c25 33 57 118 57 173 0 9-3 13-9 14-46 7-82 13-130 27-86 26-136 77-136 171 0 100 67 185 172 185 38 0 64-7 89-18z" horiz-adv-x="417" unicode="ς"/>
    <glyph d="M424 388H163v213h277v73H75V0h380v73H163v243h261M162 721c30 0 49 23 49 51s-20 50-48 50-49-23-49-50c0-28 20-51 48-51m185 0c31 0 50 23 50 51s-20 50-48 50c-29 0-50-23-50-50 0-28 20-51 48-51z" horiz-adv-x="492" unicode="Ё"/>
    <glyph d="M-1 674v-73h186V0h88v338c30 22 70 39 114 39 51 0 87-22 112-61 24-35 35-86 35-146 0-74-18-133-47-171-29-39-71-60-110-70l15-68c45 7 98 29 140 76 59 50 93 138 93 241 0 68-14 136-52 188-36 52-89 84-162 84-53 0-103-20-135-41h-3v192h244v73z" horiz-adv-x="665" unicode="Ђ"/>
    <glyph d="M75 674V0h88v601h271v73M283 827l-93-117h71l128 117z" horiz-adv-x="433" unicode="Ѓ"/>
    <glyph d="M544 653c-24 13-72 32-157 32-219 0-350-159-350-349C37 118 180-11 371-11c80 0 139 16 172 33l-15 67c-40-17-89-27-141-27-154 0-252 111-256 248h345v69H130c14 131 107 234 260 234 53 0 101-12 133-28z" horiz-adv-x="576" unicode="Є"/>
    <glyph d="M42 33C78 9 149-11 214-11c159 0 235 91 235 195 0 99-57 154-171 198-93 36-134 67-134 130 0 46 35 101 127 101 61 0 106-19 127-32l24 71c-29 17-80 33-148 33-131 0-218-78-218-183 0-94 68-152 178-192 91-34 127-71 127-133 0-68-52-115-141-115-60 0-116 19-155 44z" horiz-adv-x="493" unicode="Ѕ"/>
    <glyph d="M75 674V0h88v674z" horiz-adv-x="239" unicode="І"/>
    <glyph d="M75 674V0h88v674M27 721c30 0 49 23 49 51s-20 50-48 50-49-23-49-50c0-28 20-51 48-51m185 0c31 0 50 23 50 51s-20 50-48 50c-29 0-50-23-50-50 0-28 20-51 48-51z" horiz-adv-x="239" unicode="Ї"/>
    <glyph d="M213 230C213 98 168 63 90 63c-30 0-56 6-74 13L4 5c21-9 60-16 93-16 116 0 204 55 204 234v451h-88z" horiz-adv-x="370" unicode="Ј"/>
    <glyph d="M124 674V391c0-109-5-240-58-292C50 83 21 67-6 62L7-8C43-8 83 8 108 24c94 64 101 227 101 373v204h205V1c29-3 74-7 135-7 93 0 181 20 237 75 34 35 56 83 56 147 0 148-124 209-259 209-22 0-61-2-82-5v254m0-321c22 2 49 4 69 4 95 0 181-39 181-144 0-102-83-151-180-151-28 0-49 0-70 4z" horiz-adv-x="881" unicode="Љ"/>
    <glyph d="M75 674V0h88v331h267V2c29-4 74-8 137-8 95 0 179 19 235 74 34 34 56 81 56 146 0 142-117 202-248 202-36 0-72-2-93-5v263h-87V405H163v269m354-330c19 2 44 4 75 4 92 0 175-38 175-137 0-104-84-149-179-149-29 0-50 1-71 5z" horiz-adv-x="897" unicode="Њ"/>
    <glyph d="M-1 674v-73h184V0h88v339c32 24 84 43 127 43 38 0 65-12 86-33 23-26 32-60 32-110V0h87v250c0 67-17 120-53 157-28 29-68 47-124 47-57 0-115-23-153-46h-2v193h235v73z" horiz-adv-x="675" unicode="Ћ"/>
    <glyph d="M76 674V0h87v309h28c114 0 156-61 187-150 19-53 37-113 62-159h93c-29 60-48 122-74 191-34 91-77 159-189 174l255 309H421L190 375h-27v299m156 148-93-117h71l128 117z" horiz-adv-x="542" unicode="Ќ"/>
    <glyph d="m2 674 224-456c8-16 10-26 3-41-22-48-63-115-132-115-15 0-25 1-33 3L56-6c11-4 26-6 49-6 60 0 109 28 152 83 48 62 90 165 126 255l142 348h-92L327 388c-16-48-29-87-41-121h-3c-15 39-31 78-48 118L101 674m32 143c5-66 44-108 126-108 85 0 125 41 130 108h-67c-4-33-15-62-61-62-47 0-57 31-61 62z" horiz-adv-x="521" unicode="Ў"/>
    <glyph d="M75 674V0h200l7-175h73l7 175h199v674h-88V73H163v601z" horiz-adv-x="635" unicode="Џ"/>
    <glyph d="M424 212 496 0h93L359 674H255L25 0h90l70 212m18 68 66 195c14 41 24 83 34 122h2c10-39 20-79 35-123l67-194z" horiz-adv-x="612" unicode="А"/>
    <glyph d="M76 674V2c29-4 75-8 136-8 92 0 183 21 238 75 34 35 56 83 56 147 0 78-35 131-86 164-47 31-110 45-174 45-22 0-62-2-83-5v181h291v73M163 353c22 2 50 4 69 4 48 0 94-10 128-34 33-23 55-58 55-110 0-42-14-75-37-99-33-35-88-52-142-52-30 0-53 1-73 5z" horiz-adv-x="546" unicode="Б"/>
    <glyph d="M76 2c29-4 75-8 135-8 110 0 186 20 232 63 35 32 58 77 58 135 0 100-75 153-139 168v3c70 25 114 82 114 148 0 53-22 93-57 119-41 34-97 49-184 49-60 0-121-6-159-15m87-58c14 3 37 6 77 6 88 0 147-32 147-110 0-65-54-114-145-114h-79m0-65h72c95 0 174-39 174-130 0-98-83-131-173-131-31 0-55 1-73 4z" horiz-adv-x="542" unicode="В"/>
    <glyph d="M75 674V0h88v601h271v73z" horiz-adv-x="433" unicode="Г"/>
    <glyph d="M160 674V503c0-116-9-206-32-284-16-53-41-102-66-148l-50-2 5-231h68L91 0h425l6-162h68l6 231-59 2v603m-296-72h209V72H152c19 36 41 81 55 128 24 76 34 167 34 275z" horiz-adv-x="630" unicode="Д"/>
    <glyph d="M424 388H163v213h277v73H75V0h380v73H163v243h261z" horiz-adv-x="492" unicode="Е"/>
    <glyph d="m22 674 238-310c-105-13-147-78-181-174C57 127 40 62 11 0h89c22 45 38 110 55 158 32 92 65 151 173 151h31V0h84v309h30c108 0 141-59 173-151 16-48 32-113 55-158h89c-28 62-44 127-66 191-34 96-77 163-183 173l239 310H679L470 375h-27v299h-84V375h-27L123 674z" horiz-adv-x="801" unicode="Ж"/>
    <glyph d="M73 571c37 23 89 44 141 44 72 0 121-38 121-107s-70-124-159-124h-39v-66h40c86 0 183-29 183-130 0-74-55-128-154-128-56 0-115 20-152 41L31 33C83 2 146-11 207-11c123 0 245 56 245 196-1 97-71 159-165 169v2c78 18 139 82 139 165 0 104-81 165-198 165-74 0-132-21-178-51z" horiz-adv-x="492" unicode="З"/>
    <glyph d="M76 674V0h93l211 336c46 74 92 152 125 226l3-1c-7-85-8-165-8-274V0h82v674h-87L277 327c-49-80-91-153-124-223l-3 1c6 90 8 179 8 285v284z" horiz-adv-x="658" unicode="И"/>
    <glyph d="M76 674V0h93l211 336c46 74 92 152 125 226l3-1c-7-85-8-165-8-274V0h82v674h-87L277 327c-49-80-91-153-124-223l-3 1c6 90 8 179 8 285v284m43 141c5-66 44-108 126-108 85 0 125 41 130 108h-67c-4-33-15-62-61-62-47 0-57 31-61 62z" horiz-adv-x="658" unicode="Й"/>
    <glyph d="M76 674V0h87v309h28c114 0 156-61 187-150 19-53 37-113 62-159h93c-29 60-48 122-74 191-34 91-77 159-189 174l255 309H421L190 375h-27v299z" horiz-adv-x="542" unicode="К"/>
    <glyph d="M123 674V390c0-108-5-240-59-292C48 82 20 66-7 62L4-8C43-8 83 8 108 24c94 64 101 227 101 373v204h222V0h88v674z" horiz-adv-x="594" unicode="Л"/>
    <glyph d="M660 0h86l-42 674H593L473 348c-30-85-54-159-72-227h-2c-18 70-40 144-68 227L216 674H105L58 0h83l18 289c6 102 11 214 13 298h2c19-80 45-166 77-262L361 4h66l119 327c34 93 61 178 85 256h2c0-83 6-197 11-291z" horiz-adv-x="804" unicode="М"/>
    <glyph d="M75 674V0h88v316h326V0h88v674h-88V392H163v282z" horiz-adv-x="652" unicode="Н"/>
    <glyph d="M348 686C168 686 36 546 36 332 36 128 160-11 339-11c172 0 313 124 313 355 0 201-119 342-304 342m-3-71c145 0 215-140 215-275 0-153-78-280-216-280S128 189 128 334c0 147 72 281 217 281z" horiz-adv-x="689" unicode="О"/>
    <glyph d="M75 674V0h88v601h313V0h88v674z" horiz-adv-x="639" unicode="П"/>
    <glyph d="M76 0h87v270c20-5 44-6 70-6 85 0 159 25 206 74 34 35 52 83 52 144 0 60-23 109-59 141-40 36-103 56-189 56-70 0-125-6-167-13m87-63c15 4 44 7 82 7 95 0 159-43 159-133 0-91-64-143-169-143-29 0-53 2-72 7z" horiz-adv-x="532" unicode="Р"/>
    <glyph d="M529 91c-35-17-89-28-143-28-163 0-258 105-258 271 0 177 105 278 263 278 56 0 103-12 135-28l22 71c-23 12-77 30-160 30-209 0-352-142-352-354C36 109 178-11 368-11c82 0 147 16 178 32z" horiz-adv-x="580" unicode="С"/>
    <glyph d="M204 0h88v600h206v74H-1v-74h205z" horiz-adv-x="497" unicode="Т"/>
    <glyph d="m2 674 224-456c8-16 10-26 3-41-22-48-63-115-132-115-15 0-25 1-33 3L56-6c11-4 26-6 49-6 60 0 109 28 152 83 48 62 90 165 126 255l142 348h-92L327 388c-16-48-29-87-41-121h-3c-15 39-31 78-48 118L101 674z" horiz-adv-x="521" unicode="У"/>
    <glyph d="M321 701v-61c-130-7-285-86-285-307C36 120 179 45 319 35v-62h84v62c143 9 285 89 285 302 0 212-142 297-283 303v61M320 98c-99 10-194 78-194 238 0 176 106 237 194 242m84 0c96-6 194-67 194-241 0-166-97-232-194-239z" horiz-adv-x="725" unicode="Ф"/>
    <glyph d="M546 0 336 346l205 328H440l-91-158c-25-43-42-74-61-114h-3c-18 36-37 70-62 114l-89 158H33l198-333L25 0h100l81 148c34 59 54 95 73 134h2c21-39 42-76 77-133L445 0z" horiz-adv-x="571" unicode="Х"/>
    <glyph d="M75 674V0h464l6-163h68l6 232-59 2v603h-88V73H163v601z" horiz-adv-x="652" unicode="Ц"/>
    <glyph d="M71 674V444c0-164 110-202 199-202 59 0 115 15 162 42h2V-4h87v678h-87V352c-35-23-86-39-134-39-94 0-142 52-142 145v216z" horiz-adv-x="597" unicode="Ч"/>
    <glyph d="M76 674V0h696v674h-86V73H467v601h-86V73H162v601z" horiz-adv-x="847" unicode="Ш"/>
    <glyph d="M76 674V0h675l6-163h68l6 232-59 2v603h-86V73H467v601h-86V73H162v601z" horiz-adv-x="864" unicode="Щ"/>
    <glyph d="M-2 674v-72h173V2c29-4 75-8 134-8 91 0 180 20 235 79 32 34 52 81 52 143 0 147-123 211-253 211-26 0-61-2-81-5v252m0-321c21 2 47 4 70 4 88 0 173-40 173-144 0-102-76-151-174-151-28 0-50 1-69 5z" horiz-adv-x="631" unicode="Ъ"/>
    <glyph d="M76 674V2c29-4 75-8 135-8 91 0 185 21 240 79 32 34 52 81 52 143 0 149-121 211-259 211-22 0-61-2-81-6v253m0-321c11 1 37 4 69 4 90 0 180-39 180-144 0-102-83-151-179-151-29 0-52 1-70 5m415 607V0h88v674z" horiz-adv-x="746" unicode="Ы"/>
    <glyph d="M76 674V2c29-4 75-8 136-8 93 0 187 21 242 79 32 34 52 81 52 144 0 149-122 210-260 210-23 0-63-2-83-5v252m0-321c22 2 49 4 71 4 96 0 181-40 181-145 0-104-83-150-180-150-30 0-52 1-72 5z" horiz-adv-x="545" unicode="Ь"/>
    <glyph d="M124 310h314c-6-140-95-248-243-248-51 0-107 13-146 31L30 23C78 2 140-11 206-11c180 0 325 126 325 348 0 195-108 348-319 348-65 0-123-17-171-39l21-66c43 18 90 33 145 33 139 0 219-102 230-233H124z" horiz-adv-x="568" unicode="Э"/>
    <glyph d="M76 674V0h87v310h98c7-197 117-321 280-321 160 0 290 121 290 355 0 201-106 342-281 342-159 0-269-114-287-302H163v290M545 59c-128 0-198 132-198 275 0 145 65 282 199 282s196-141 196-276c0-153-70-281-197-281z" horiz-adv-x="867" unicode="Ю"/>
    <glyph d="M108 0c9 18 15 32 22 49 24 64 42 163 89 210 24 24 55 33 96 33h65V0h87v665c-44 9-104 14-161 14-85 0-151-18-193-52-38-31-62-78-62-137 0-92 65-152 149-166v-2c-21-7-41-19-57-35C88 232 71 138 42 61 34 39 25 18 14 0m366 360c-17-2-45-2-74-2-96 0-167 47-167 128 0 93 73 125 158 125 40 0 68-4 83-8z" horiz-adv-x="543" unicode="Я"/>
    <glyph d="M413 297c0 96-36 197-184 197-61 0-120-17-160-42l20-59c34 23 81 36 127 36 99 1 110-72 110-111v-10c-187 1-291-63-291-180C35 58 85-11 183-11c69 0 121 34 148 72h3l7-61h79c-5 33-7 74-7 116m-85 47c0-8-1-18-4-28-14-41-55-81-119-81-44 0-82 26-82 84 0 94 109 111 205 109z" horiz-adv-x="482" unicode="а"/>
    <glyph d="M443 721c-33-11-80-19-120-26-95-16-162-46-208-114-52-67-75-158-75-268C40 152 96-12 266-12c142 0 224 99 224 257 0 154-87 239-206 239-69 0-137-38-169-109h-3c5 52 22 117 53 160 37 53 95 79 173 91 32 5 77 13 101 22m-38-409c0-90-35-185-133-185-96 0-136 116-136 196 0 39 8 74 24 103 21 39 58 66 110 66 104 0 135-102 135-180z" horiz-adv-x="528" unicode="б"/>
    <glyph d="M70 0c26-2 83-6 137-6 95 0 255 16 255 143 0 70-52 109-123 119v2c55 12 101 50 101 110 0 107-134 121-216 121-56 0-119-5-154-11m85-54c20 2 38 4 68 4 88 0 130-23 130-71 0-58-67-77-132-77h-66m-1-57h64c83 0 154-15 154-85 0-71-88-84-148-84-27 0-45 1-70 3z" horiz-adv-x="500" unicode="в"/>
    <glyph d="M71 484V0h87v414h210v70z" horiz-adv-x="385" unicode="г"/>
    <glyph d="M125 484V358c0-68-9-133-28-193-11-35-27-68-48-99L8 64l4-217h68L85 0h335l4-153h69l5 218-50 1v418m-246-67h160V67H139c15 27 28 57 38 90 17 54 25 116 25 181z" horiz-adv-x="530" unicode="д"/>
    <glyph d="M462 226c2 10 3 23 3 41 0 89-41 227-200 227-141 0-227-114-227-260S127-11 276-11c77 0 131 17 162 31l-16 63c-32-14-71-25-134-25-89 0-164 49-166 168m1 63c7 61 45 142 135 142 99 0 123-87 122-142z" horiz-adv-x="501" unicode="е"/>
    <glyph d="m14 484 191-220c-73-8-115-51-145-129C43 90 27 39 6 0h86c16 30 29 68 45 110 30 79 71 104 140 104h15V0h84v214h15c63 0 108-24 138-103 14-42 28-82 44-111h88c-20 38-36 89-53 136-29 77-72 120-145 128l191 220H553L393 273h-17v211h-84V273h-17L114 484z" horiz-adv-x="667" unicode="ж"/>
    <glyph d="M114 221h43c73 0 141-18 141-83 0-48-46-83-119-83-45 0-93 14-128 34L28 29C71 5 129-10 185-10c102 0 209 40 209 144 0 71-60 114-132 121v2c54 11 109 50 109 110 0 94-90 127-164 127-56 0-112-14-161-44l22-54c34 21 78 35 117 35 55 0 94-28 94-71 0-45-50-79-124-79h-42z" horiz-adv-x="431" unicode="з"/>
    <glyph d="M70 484V0h102c51 85 105 178 151 253 29 49 49 88 81 151h2c-4-79-6-120-6-199V0h84v484H381L230 234c-33-56-49-90-79-149l-3 1c4 69 6 118 6 194v204z" horiz-adv-x="554" unicode="и"/>
    <glyph d="M70 484V0h102c51 85 105 178 151 253 29 49 49 88 81 151h2c-4-79-6-120-6-199V0h84v484H381L230 234c-33-56-49-90-79-149l-3 1c4 69 6 118 6 194v204m-7 197c4-68 38-124 126-124 77 0 128 43 133 124h-63c-5-43-25-76-68-76-40 0-61 33-64 76z" horiz-adv-x="554" unicode="й"/>
    <glyph d="M73 484V0h87v213h17c81 0 126-36 159-114 16-40 32-78 45-99h92c-22 39-38 86-51 118-38 87-85 139-163 148l210 218H362L181 274h-21v210z" horiz-adv-x="479" unicode="к"/>
    <glyph d="M100 484V291c0-108-5-176-50-209C38 72 19 65 2 62l9-69c45 0 72 11 96 30 63 41 76 132 76 268v124h166V0h88v484z" horiz-adv-x="507" unicode="л"/>
    <glyph d="M42 0h81l13 229c3 53 5 117 7 174h4c12-45 33-115 49-160L282 3h63l93 244c27 75 41 113 54 157h3c2-59 6-120 8-173L514 0h84l-34 484H455l-77-211c-20-53-47-129-58-166h-2c-11 38-31 97-44 133l-87 244H79z" horiz-adv-x="639" unicode="м"/>
    <glyph d="M70 484V0h88v219h229V0h88v484h-88V289H158v195z" horiz-adv-x="546" unicode="н"/>
    <glyph d="M278 494c-133 0-240-95-240-256C38 85 140-11 270-11c116 0 241 78 241 257 0 147-94 248-233 248m-2-66c104 0 145-103 145-185 0-109-63-188-147-188-86 0-146 80-146 186 0 91 45 187 148 187z" horiz-adv-x="549" unicode="о"/>
    <glyph d="M70 484V0h88v415h225V0h88v484z" horiz-adv-x="541" unicode="п"/>
    <glyph d="M73-198h87V65h2c29-48 85-76 149-76 114 0 221 86 221 260 0 146-88 245-206 245-79 0-137-34-172-93h-2l-5 83H69c2-46 4-96 4-158m87-45c0 11 3 24 6 35 16 66 73 108 133 108 93 0 144-83 144-179 0-111-54-187-147-187-63 0-116 42-132 103-3 11-4 23-4 36z" horiz-adv-x="569" unicode="р"/>
    <glyph d="M403 83c-25-11-58-23-108-23-96 0-168 69-168 181 0 100 60 183 171 183 48 0 81-12 102-23l20 67c-24 13-70 26-122 26-158 0-260-109-260-258C38 88 133-11 279-11c65 0 116 17 139 28z" horiz-adv-x="448" unicode="с"/>
    <glyph d="M10 484v-69h151V0h88v415h151v69z" horiz-adv-x="411" unicode="т"/>
    <glyph d="M9 484 187 38c5-11 7-18 7-23s-3-12-7-21c-21-45-50-79-74-98-26-22-55-36-77-43l22-73c22 4 64 19 108 56 60 53 103 137 166 303l132 345h-93l-96-284c-12-35-22-72-31-101h-2c-8 29-20 67-32 99L105 484z" horiz-adv-x="471" unicode="у"/>
    <glyph d="m280 708 1-216C145 481 38 397 38 238 38 87 141-1 281-10l-1-188h82L361-9c136 9 243 93 243 252 0 150-102 239-243 250l1 215M281 51c-96 12-156 90-156 189 0 100 59 180 156 192m80 0c97-13 156-89 156-189 0-99-59-179-156-193z" horiz-adv-x="641" unicode="ф"/>
    <glyph d="m16 484 164-237L8 0h97l70 109c19 29 35 55 51 84h2c17-29 33-56 52-84L352 0h99L282 250l165 234h-96l-67-103c-17-26-33-51-49-79h-2c-16 27-31 51-50 78l-69 104z" horiz-adv-x="463" unicode="х"/>
    <glyph d="M70 484V0h370l4-153h69l5 218-50 1v418h-87V69H158v415z" horiz-adv-x="550" unicode="ц"/>
    <glyph d="M65 484V310c0-110 68-157 159-157 46 0 99 15 132 36h1V-6h87v490h-87V251c-26-19-66-33-104-33-77 0-100 41-100 103v163z" horiz-adv-x="515" unicode="ч"/>
    <glyph d="M70 484V0h597v484h-87V69H412v415h-87V69H157v415z" horiz-adv-x="738" unicode="ш"/>
    <glyph d="M70 484V0h570l3-153h69l5 218-50 1v418h-86V69H413v415h-87V69H157v415z" horiz-adv-x="749" unicode="щ"/>
    <glyph d="M14 484v-69h143V2c37-4 82-7 130-7 71 0 152 10 205 55 31 26 51 61 51 112 0 125-115 164-215 164-30 0-60-2-83-5v163m-1-227c21 4 40 6 62 6 70 0 149-21 149-104 0-77-72-101-145-101-29 0-48 2-66 4z" horiz-adv-x="579" unicode="ъ"/>
    <glyph d="M70 484V2c37-4 82-7 130-7 64 0 142 11 195 56 31 26 51 61 51 112 0 120-106 163-210 163-32 0-60-3-78-6v164m-1-227c18 4 40 6 65 6 66 0 136-24 136-102 0-76-72-103-140-103-24 0-43 1-61 4m350 422V0h87v484z" horiz-adv-x="665" unicode="ы"/>
    <glyph d="M70 484V2c37-4 82-7 130-7 71 0 158 11 211 56 31 26 51 61 51 111 0 129-115 164-224 164-26 0-59-2-80-5v163m-1-227c21 4 40 6 63 6 66 0 154-19 154-103 0-80-86-102-151-102-29 0-48 1-66 4z" horiz-adv-x="498" unicode="ь"/>
    <glyph d="M94 216h242c-7-96-72-157-170-157-56 0-97 16-120 26L28 23c39-21 89-33 142-33 163 0 256 110 256 250 0 79-24 142-66 186-43 45-105 68-175 68-52 0-107-13-149-37l19-58c25 12 65 27 115 27 108 0 159-67 167-149H94z" horiz-adv-x="464" unicode="э"/>
    <glyph d="M71 484V0h86v213h81C248 75 332-11 449-11c122 0 218 100 218 257 0 149-86 248-213 248-116 0-199-86-214-214h-83v204M451 54c-86 0-129 91-129 185 0 98 45 189 130 189 86 0 127-94 127-184 0-92-40-190-128-190z" horiz-adv-x="705" unicode="ю"/>
    <glyph d="M426 480c-42 6-98 10-155 10-64 0-123-9-163-33-37-21-64-55-64-105 0-75 65-114 128-121v-2c-22-5-40-15-55-28-43-36-55-99-76-146-9-21-19-39-30-55h94c7 12 14 25 20 40 19 47 32 106 69 135 18 18 43 28 80 28h65V0h87m-87 262h-75c-52 0-129 23-129 85 0 67 72 84 131 84 31 0 51-2 73-5z" horiz-adv-x="496" unicode="я"/>
    <glyph d="M462 226c2 10 3 23 3 41 0 89-41 227-200 227-141 0-227-114-227-260S127-11 276-11c77 0 131 17 162 31l-16 63c-32-14-71-25-134-25-89 0-164 49-166 168m1 63c7 61 45 142 135 142 99 0 123-87 122-142M175 570c30 0 50 24 50 51 0 29-21 51-48 51-29 0-51-23-51-51 0-27 21-51 49-51m185 0c30 0 50 24 50 51 0 29-21 51-49 51s-50-23-50-51c0-27 20-51 49-51z" horiz-adv-x="501" unicode="ё"/>
    <glyph d="M7 625v-63h82V0h88v305c0 24 5 41 15 55 28 34 68 58 107 58 41 0 72-22 92-55 30-50 38-109 38-170 0-104-24-178-59-218-27-30-55-42-93-50l16-68c46 4 90 25 125 55 62 52 99 152 99 287 0 80-15 155-53 211-31 50-78 79-138 79-59 0-112-30-147-69h-2v142h226v63H177v85H89v-85z" horiz-adv-x="557" unicode="ђ"/>
    <glyph d="M71 484V0h87v414h210v70M250 693l-88-143h62l122 143z" horiz-adv-x="385" unicode="ѓ"/>
    <glyph d="M432 462c-22 13-71 32-130 32-154 0-264-102-264-256C38 97 129-11 285-11c69 0 123 19 147 31l-17 63c-24-10-64-25-116-25-95 0-163 62-170 158h244v61H128c10 82 67 149 173 149 51 0 87-16 110-27z" horiz-adv-x="460" unicode="є"/>
    <glyph d="M40 23c34-20 83-34 136-34 113 0 180 60 180 146 0 72-44 114-127 145-63 25-91 43-91 83 0 36 28 66 80 66 45 0 80-17 99-29l21 64c-26 17-69 30-118 30-103 0-167-64-167-142 0-58 41-105 129-137 64-24 89-46 89-88 0-41-30-72-93-72-44 0-90 18-117 34z" horiz-adv-x="396" unicode="ѕ"/>
    <glyph d="M161 0v484H73V0m44 675c-33 0-55-25-55-55s21-54 53-54c35 0 56 24 56 54 0 31-22 55-54 55z" horiz-adv-x="234" unicode="і"/>
    <glyph d="M161 0v484H73V0M24 570c30 0 50 24 50 51 0 29-21 51-48 51-29 0-51-23-51-51 0-27 21-51 49-51m185 0c30 0 50 24 50 51 0 29-21 51-49 51s-50-23-50-51c0-27 20-51 49-51z" horiz-adv-x="234" unicode="ї"/>
    <glyph d="M-36-211c47 0 111 16 150 55 43 44 58 105 58 199v441H84V77C84-39 74-77 50-104c-21-24-55-35-96-38m174 817c-33 0-55-25-55-55 0-29 21-54 53-54 36 0 56 25 56 54 0 30-21 55-54 55z" horiz-adv-x="243" unicode="ј"/>
    <glyph d="M105 484V292c0-106-9-178-55-210-12-9-31-16-48-19l8-69c45 0 73 11 95 30 64 41 82 131 82 268v123h162V2c37-4 84-7 131-7 70 0 158 11 211 57 29 25 48 60 48 109 0 126-115 163-223 163-25 0-58-2-79-5v165m-1-228c21 4 43 6 70 6 62 0 145-20 145-103 0-80-85-101-150-101-28 0-47 1-65 4z" horiz-adv-x="775" unicode="љ"/>
    <glyph d="M70 484V0h88v236h204V1c37-3 83-6 131-6 70 0 151 9 204 55 29 25 49 60 49 110 0 120-116 160-214 160-28 0-62-2-82-5v169h-88V304H158v180m291-231c20 3 41 5 66 5 66 0 143-20 143-101 0-78-80-99-143-99-30 0-49 2-66 3z" horiz-adv-x="782" unicode="њ"/>
    <glyph d="M7 625v-63h82V0h88v283c0 17 2 33 6 46 16 45 59 87 118 87 83 0 112-65 112-143V0h88v283c0 135-68 206-169 206-35 0-66-9-93-25-24-14-44-34-60-59h-2v157h202v63H177v85H89v-85z" horiz-adv-x="571" unicode="ћ"/>
    <glyph d="M73 484V0h87v213h17c81 0 126-36 159-114 16-40 32-78 45-99h92c-22 39-38 86-51 118-38 87-85 139-163 148l210 218H362L181 274h-21v210m120 209-87-143h62l122 143z" horiz-adv-x="479" unicode="ќ"/>
    <glyph d="M106 681c4-68 38-124 126-124 77 0 128 43 133 124h-63c-5-43-25-76-68-76-40 0-61 33-64 76M9 484 187 38c5-11 7-18 7-23s-3-12-7-21c-21-45-50-79-74-98-26-22-55-36-77-43l22-73c22 4 64 19 108 56 60 53 103 137 166 303l132 345h-93l-96-284c-12-35-22-72-31-101h-2c-8 29-20 67-32 99L105 484z" horiz-adv-x="471" unicode="ў"/>
    <glyph d="M70 484V0h158l7-157h70l6 157h157v484h-88V69H158v415z" horiz-adv-x="538" unicode="џ"/>
    <glyph d="M76 674V0h87v601h274l11 196h-65l-16-123z" horiz-adv-x="447" unicode="Ґ"/>
    <glyph d="M71 484V0h87v414h211l6 179h-63l-12-109z" horiz-adv-x="392" unicode="ґ"/>
    <glyph d="M78 400c35 14 73 25 135 25 91 0 163-49 165-168H38c-2-9-3-23-3-41 0-88 42-226 200-226 141 0 227 114 227 259 0 146-89 245-237 245-77 0-131-18-163-32m315-268c-7-61-44-141-135-141-99 0-123 86-122 141z" horiz-adv-x="328" unicode="ә"/>
    <glyph d="M424 212 496 0h93L359 674H255L25 0h90l70 212m18 68 66 195c14 41 24 82 34 122h2c10-39 20-79 35-123l67-194M303-80c-28 0-51-23-51-51s21-52 50-52c30 0 50 24 50 52s-21 51-49 51z" horiz-adv-x="612" unicode="Ạ"/>
    <glyph d="M413 297c0 96-36 197-184 197-61 0-120-17-160-42l20-59c34 23 81 36 127 36 99 1 110-72 110-111v-10c-187 1-291-63-291-180C35 58 85-11 183-11c69 0 121 34 148 72h3l7-61h79c-5 33-7 74-7 116m-85 47c0-8-1-18-4-28-14-41-55-81-119-81-44 0-82 26-82 84 0 94 109 111 205 109M241-80c-28 0-51-23-51-52 0-27 21-51 50-51 30 0 50 24 50 51 0 29-21 52-49 52z" horiz-adv-x="482" unicode="ạ"/>
    <glyph d="M424 212 496 0h93L359 674H255L25 0h90l70 212m18 68 66 195c14 41 24 83 34 122h2c10-39 20-79 35-123l67-194m-77 429c27 46 72 57 72 107 0 41-37 73-83 73-51 0-81-31-99-67l33-20c12 17 29 35 50 35 19 0 33-12 33-32 0-32-36-41-52-83z" horiz-adv-x="612" unicode="Ả"/>
    <glyph d="M413 297c0 96-36 197-184 197-61 0-120-17-160-42l20-59c34 23 81 36 127 36 99 1 110-72 110-111v-10c-187 1-291-63-291-180C35 58 85-11 183-11c69 0 121 34 148 72h3l7-61h79c-5 33-7 74-7 116m-85 47c0-8-1-18-4-28-14-41-55-81-119-81-44 0-82 26-82 84 0 94 109 111 205 109m-73 282c23 46 76 62 76 117 0 45-37 75-85 75-50 0-80-30-98-66l34-21c12 18 27 35 49 35 19 0 34-13 34-33 0-37-45-51-57-95z" horiz-adv-x="482" unicode="ả"/>
    <glyph d="M424 212 497 0h93L359 674H255L25 0h90l70 212m18 68 66 195c14 41 24 83 34 122h2c10-39 20-79 35-123l67-194M280 823l-92-114h67l56 70h2l55-70h70l-95 114m131 76-84-105h52l121 105z" horiz-adv-x="612" unicode="Ấ"/>
    <glyph d="M413 297c0 96-36 197-184 197-61 0-120-17-160-42l20-59c34 23 81 36 127 36 99 1 110-72 110-111v-10c-187 1-291-63-291-180C35 58 85-11 183-11c69 0 121 34 148 72h3l7-61h79c-5 33-7 74-7 116m-85 47c0-8-1-18-4-28-14-41-55-81-119-81-44 0-82 26-82 84 0 94 109 111 205 109M201 693l-84-143h64l51 94h2l51-94h67l-86 143m127 81-69-131h51l99 131z" horiz-adv-x="482" unicode="ấ"/>
    <glyph d="M424 212 496 0h93L359 674H254L25 0h90l70 212m18 68 66 195c13 41 24 83 33 122h3c10-39 20-79 35-123l67-194m-70 601 109-105h54l-73 105m-153-58-92-114h67l56 70h2l55-70h70l-95 114z" horiz-adv-x="612" unicode="Ầ"/>
    <glyph d="M413 297c0 96-36 197-184 197-61 0-120-17-160-42l20-59c34 23 81 36 127 36 99 1 110-72 110-111v-10c-187 1-291-63-291-180C35 58 85-11 183-11c69 0 121 34 148 72h3l8-61h79c-6 33-8 74-8 116m-85 47c0-9-1-19-4-28-14-41-55-81-119-81-44 0-82 26-82 84 0 94 109 111 205 109m-56 527 93-131h50l-63 131m-152-81-84-143h64l51 94h2l51-94h67l-86 143z" horiz-adv-x="482" unicode="ầ"/>
    <glyph d="M424 212 496 0h93L359 674H255L26 0h90l69 212m18 68 66 195c14 41 24 82 34 122h2c10-39 20-79 35-123l66-194M277 824l-93-114h68l55 69h2l56-69h69l-94 114m119-70c26 46 69 56 69 104 0 39-34 70-79 70-49 0-78-29-95-64l32-19c11 17 28 36 49 36 19 0 34-13 34-32 0-32-36-42-52-83z" horiz-adv-x="612" unicode="Ẩ"/>
    <glyph d="M413 297c0 96-36 197-184 197-61 0-120-17-160-42l20-59c34 23 81 36 127 36 99 1 110-72 110-111v-10c-187 1-291-63-291-180C35 58 85-11 183-11c69 0 121 34 148 72h3l7-61h80c-6 33-8 74-8 116m-85 47c0-9-1-19-4-28-14-41-55-81-119-81-44 0-82 26-82 84 0 94 109 111 205 109M198 693l-84-143h64l51 94h2l51-94h67l-86 143m115-59c26 45 68 54 68 103 0 39-34 71-79 71-48 0-78-30-95-64l32-20c11 17 28 36 48 36 19 0 33-14 33-32 0-32-35-41-51-82z" horiz-adv-x="482" unicode="ẩ"/>
    <glyph d="M424 212 496 0h93L359 674H255L25 0h90l70 212m18 68 66 195c14 41 24 83 34 122h2c10-39 20-79 35-123l67-194M273 824 171 710h71l64 69h2l63-69h74L340 824m-104 13c1 24 10 40 25 40 12 0 24-6 44-17s39-21 60-21c47 0 70 34 68 96h-46c-2-32-12-41-28-41-12 0-26 8-42 16-23 12-40 22-62 22-42 0-69-38-68-95z" horiz-adv-x="612" unicode="Ẫ"/>
    <glyph d="M413 297c0 96-36 197-184 197-61 0-120-17-160-42l20-59c34 23 81 36 127 36 99 1 110-72 110-111v-10c-187 1-291-63-291-180C35 58 85-11 183-11c69 0 121 34 148 72h3l7-61h79c-5 33-7 74-7 116m-85 47c0-8-1-18-4-28-14-41-55-81-119-81-44 0-82 26-82 84 0 94 109 111 205 109M208 667l-89-117h67l53 73h2l54-73h69l-91 117m-104 12c2 23 10 39 26 39 12 0 23-6 43-16 21-11 39-21 61-21 47 0 69 33 68 96h-47c-2-32-11-41-27-41-12 0-26 8-42 16-24 12-41 22-62 22-43 0-69-38-68-95z" horiz-adv-x="482" unicode="ẫ"/>
    <glyph d="M424 212 496 0h93L359 674H255L25 0h90l70 212m18 68 66 195c14 41 24 83 34 122h2c10-39 20-79 35-123l67-194M274 824 172 710h71l64 69h2l63-69h74L341 824M302-181c28 0 49 24 49 51 0 26-21 50-48 50-28 0-50-24-50-50 0-27 21-51 49-51z" horiz-adv-x="612" unicode="Ậ"/>
    <glyph d="M413 297c0 96-36 197-184 197-61 0-120-17-160-42l20-59c34 23 81 36 127 36 99 1 110-72 110-111v-10c-187 1-291-63-291-180C35 58 85-11 183-11c69 0 121 34 148 72h3l7-61h79c-5 33-7 74-7 116m-85 47c0-8-1-18-4-28-14-41-55-81-119-81-44 0-82 26-82 84 0 94 109 111 205 109M209 693l-93-143h66l57 94h2l59-94h67l-96 143M241-80c-28 0-51-23-51-52 0-27 21-51 50-51 30 0 50 24 50 51 0 29-21 52-49 52z" horiz-adv-x="482" unicode="ậ"/>
    <glyph d="M424 212 496 0h94L359 674H255L26 0h90l70 212m17 68 66 195c14 42 24 83 34 122h2c10-39 20-79 35-123l67-194M185 802c7-56 46-103 124-103s119 50 126 103h-47c-8-27-27-49-78-49-49 0-70 25-77 49m115 94-75-105h55l111 105z" horiz-adv-x="612" unicode="Ắ"/>
    <glyph d="M413 297c0 96-36 197-184 197-61 0-120-17-160-42l20-59c34 23 81 36 127 36 99 1 110-72 110-111v-10c-187 1-291-63-291-180C35 58 85-11 183-11c69 0 121 34 148 72h3l7-61h79c-5 33-7 74-7 116m-85 47c0-8-1-18-4-28-14-41-55-81-119-81-44 0-82 26-82 84 0 94 109 111 205 109m-48 527-80-132h53l111 132M108 657c1-62 41-124 129-124 76 0 129 49 130 124h-50c-3-34-28-69-80-69-44 0-73 30-79 69z" horiz-adv-x="482" unicode="ắ"/>
    <glyph d="M424 212 496 0h93L359 674H254L25 0h90l70 212m18 68 66 195c13 42 24 83 33 122h3c10-39 20-79 34-123l67-194M185 896l112-105h55l-75 105m-91-94c7-56 45-103 123-103 79 0 120 50 126 103h-46c-8-27-27-49-79-49-49 0-70 25-76 49z" horiz-adv-x="612" unicode="Ằ"/>
    <glyph d="M413 297c0 96-36 197-184 197-61 0-119-17-159-42l20-59c34 23 80 36 126 36 99 1 110-72 110-111v-10c-187 1-291-63-291-180C35 58 85-11 183-11c69 0 121 34 148 72h2l8-61h79c-5 33-7 74-7 116m-85 47c0-9-1-19-4-28-14-41-55-81-119-81-44 0-82 26-82 84 0 94 109 111 205 109M112 773l111-132h54l-80 132m-89-116c1-63 41-125 129-125 76 0 128 50 129 125h-49c-3-34-29-69-80-69-44 0-73 30-79 69z" horiz-adv-x="482" unicode="ằ"/>
    <glyph d="M424 212 496 0h93L359 674H255L25 0h90l70 212m18 68 66 195c14 41 24 83 34 122h2c10-39 20-79 35-123l66-194m-82 498c27 45 69 54 69 104 0 38-34 70-79 70-49 0-78-29-95-64l32-20c11 17 27 36 48 36 19 0 33-13 33-32 0-31-35-41-51-82m-95 12c7-56 46-103 124-103s119 50 125 103h-47c-7-27-26-49-77-49-50 0-70 25-77 49z" horiz-adv-x="612" unicode="Ẳ"/>
    <glyph d="M413 297c0 96-36 197-184 197-61 0-119-17-159-42l20-59c33 23 81 36 126 36 99 1 110-72 110-111v-10c-187 1-291-63-291-180C35 58 85-11 183-11c69 0 121 34 148 72h3l7-61h80c-6 33-8 74-8 116m-85 47c0-9-1-19-4-28-14-41-55-81-119-81-44 0-82 26-82 84 0 94 109 111 205 109m-80 387c27 45 70 54 70 103 0 39-35 71-81 71-48 0-78-30-95-64l32-20c11 17 28 36 48 36 19 0 33-14 33-32 0-32-35-41-51-83m-98 12c1-63 41-124 129-124 76 0 128 49 130 124h-50c-3-34-29-69-80-69-44 0-73 30-79 69z" horiz-adv-x="482" unicode="ẳ"/>
    <glyph d="M424 212 496 0h93L359 674H254L25 0h90l70 212m18 68 66 195c13 42 24 83 34 122h2c10-39 20-79 35-123l66-194M233 836c2 15 8 31 24 31 12 0 24-6 44-17s39-21 61-21c47 0 69 34 68 96h-47c-2-32-12-41-28-41-12 0-26 8-42 17-23 12-40 21-62 21-43 0-66-37-68-86m-3-34c7-56 45-103 123-103 79 0 120 50 127 103h-47c-8-27-27-49-79-49-49 0-70 25-77 49z" horiz-adv-x="612" unicode="Ẵ"/>
    <glyph d="M413 297c0 96-36 197-184 197-61 0-120-17-160-42l20-59c34 23 81 36 127 36 99 1 110-72 110-111v-10c-187 1-291-63-291-180C35 58 85-11 183-11c69 0 121 34 148 72h3l7-61h79c-5 33-7 74-7 116m-85 47c0-8-1-18-4-28-14-41-55-81-119-81-44 0-82 26-82 84 0 94 109 111 205 109M168 697c2 15 9 31 25 31 12 0 23-6 43-17 21-11 39-21 61-21 47 0 69 34 68 96h-47c-2-32-12-40-27-40-13 0-27 7-43 16-23 12-40 21-62 21-42 0-65-37-67-86m-5-40c1-63 38-124 126-124 76 0 126 49 128 124h-50c-3-34-28-71-78-71-43 0-71 32-77 71z" horiz-adv-x="482" unicode="ẵ"/>
    <glyph d="M424 212 496 0h93L359 674H255L25 0h90l70 212m18 68 66 195c14 41 24 83 34 122h2c10-39 20-79 35-123l67-194M182 832c2-60 38-106 122-106 86 0 123 47 125 106h-51c-5-26-24-49-72-49-49 0-67 26-72 49m70-1013c28 0 49 24 49 51 0 26-21 50-48 50-28 0-50-24-50-50 0-27 21-51 49-51z" horiz-adv-x="612" unicode="Ặ"/>
    <glyph d="M413 297c0 96-36 197-184 197-61 0-120-17-160-42l20-59c34 23 81 36 127 36 99 1 110-72 110-111v-10c-187 1-291-63-291-180C35 58 85-11 183-11c69 0 121 34 148 72h3l7-61h79c-5 33-7 74-7 116m-85 47c0-8-1-18-4-28-14-41-55-81-119-81-44 0-82 26-82 84 0 94 109 111 205 109M117 682c0-63 36-125 124-125 75 0 124 50 124 125h-52c-3-34-25-69-73-69-40 0-65 30-71 69m72-762c-28 0-51-23-51-52 0-27 21-51 50-51 30 0 50 24 50 51 0 29-21 52-49 52z" horiz-adv-x="482" unicode="ặ"/>
    <glyph d="M424 388H163v213h277v73H75V0h380v73H163v243h261M246-181c28 0 49 24 49 51 0 26-21 50-48 50-28 0-50-24-50-50 0-27 21-51 49-51z" horiz-adv-x="492" unicode="Ẹ"/>
    <glyph d="M462 226c2 10 3 23 3 41 0 89-41 227-200 227-141 0-227-114-227-260S127-11 276-11c77 0 131 17 162 31l-16 63c-32-14-71-25-134-25-89 0-164 49-166 168m1 63c7 61 45 142 135 142 99 0 123-87 122-142M250-81c-28 0-51-23-51-51s21-51 50-51c30 0 50 23 50 51 0 29-21 51-49 51z" horiz-adv-x="501" unicode="ẹ"/>
    <glyph d="M424 388H163v213h277v73H75V0h380v73H163v243h261M290 709c27 47 71 57 71 108 0 41-37 72-83 72-51 0-80-31-99-66l34-21c11 17 29 35 49 35s34-12 34-31c0-33-37-41-53-84z" horiz-adv-x="492" unicode="Ẻ"/>
    <glyph d="M462 226c2 10 3 23 3 41 0 89-41 227-200 227-141 0-227-114-227-260S127-11 276-11c77 0 131 17 162 31l-16 63c-32-14-71-25-134-25-89 0-164 49-166 168m1 63c7 61 45 142 135 142 99 0 123-87 122-142M264 529c23 46 76 61 76 117 0 45-37 75-85 75-50 0-80-30-98-66l35-21c11 18 26 35 48 35 19 0 34-13 34-33 0-37-45-51-57-95z" horiz-adv-x="501" unicode="ẻ"/>
    <glyph d="M424 388H163v213h277v73H75V0h380v73H163v243h261M189 715c3 27 10 44 26 44 15 0 28-9 47-19 22-11 40-19 61-19 46 0 68 34 67 97h-46c-3-32-12-39-27-39-16 0-32 9-48 18-21 11-37 20-59 20-43 0-69-41-68-102z" horiz-adv-x="492" unicode="Ẽ"/>
    <glyph d="M462 226c2 10 3 23 3 41 0 89-41 227-200 227-141 0-227-114-227-260S127-11 276-11c77 0 131 17 162 31l-16 63c-32-14-71-25-134-25-89 0-164 49-166 168m1 63c7 61 45 142 135 142 99 0 123-87 122-142M175 567c2 28 10 45 26 45 12 0 23-6 43-18 21-11 40-21 62-21 47 0 69 35 68 101h-47c-2-33-12-42-27-42-13 0-27 8-43 17-23 12-40 22-62 22-43 0-70-39-68-104z" horiz-adv-x="501" unicode="ẽ"/>
    <glyph d="M425 388H163v213h277v73H75V0h380v73H163v243h261M230 824l-93-114h68l55 70h2l56-70h70l-95 114m131 76-84-105h51l122 105z" horiz-adv-x="492" unicode="Ế"/>
    <glyph d="M462 226c2 10 3 23 3 41 0 89-41 227-200 227-141 0-227-114-227-260S127-11 276-11c77 0 131 17 162 31l-16 63c-32-14-71-25-134-25-89 0-164 49-166 168m1 63c7 61 45 142 135 142 99 0 123-87 122-142M234 693l-84-143h64l51 94h2l51-94h67l-86 143m127 81-69-131h51l99 131z" horiz-adv-x="501" unicode="ế"/>
    <glyph d="M425 388H163v213h277v73H75V0h380v73H163v243h261M289 881l109-104h54l-73 104m-153-57-92-114h67l56 70h2l55-70h70l-95 114z" horiz-adv-x="492" unicode="Ề"/>
    <glyph d="M461 226c3 10 4 23 4 41 0 89-41 227-200 227-141 0-227-114-227-260S127-11 276-11c77 0 131 17 162 31l-16 63c-32-14-71-25-134-25-89 0-164 49-166 168m1 63c7 61 45 142 135 142 99 0 123-87 122-142m-77 485 93-131h50l-63 131m-152-81-85-143h65l51 94h2l51-94h67l-87 143z" horiz-adv-x="501" unicode="ề"/>
    <glyph d="M425 388H164v213h276v73H76V0h380v73H164v243h261M226 824l-93-114h68l55 70h2l56-70h70l-95 114m119-70c27 46 69 56 69 104 0 40-34 70-79 70-49 0-78-29-95-64l32-19c11 17 28 37 49 37 19 0 34-14 34-33 0-32-36-41-52-83z" horiz-adv-x="492" unicode="Ể"/>
    <glyph d="M461 226c3 10 4 23 4 41 0 89-41 227-200 227-141 0-227-114-227-260S127-11 276-11c77 0 131 17 162 31l-16 63c-32-14-71-25-134-25-89 0-164 49-166 168m1 63c7 61 45 142 135 142 99 0 123-87 122-142M226 693l-85-143h65l51 94h2l51-94h67l-87 143m116-59c26 45 69 54 69 103 0 39-35 71-80 71-49 0-78-30-96-64l33-20c11 17 27 36 48 36 19 0 33-14 33-32 0-32-35-41-51-82z" horiz-adv-x="501" unicode="ể"/>
    <glyph d="M424 388H163v213h277v73H75V0h380v73H163v243h261M234 824 132 710h71l64 69h2l63-69h74L301 824m-104 13c1 24 10 40 25 40 12 0 24-6 44-17s39-21 60-21c47 0 70 34 68 96h-46c-2-32-12-41-28-41-12 0-26 8-42 16-23 12-40 22-62 22-42 0-69-38-68-95z" horiz-adv-x="492" unicode="Ễ"/>
    <glyph d="M462 226c2 10 3 23 3 41 0 89-41 227-200 227-141 0-227-114-227-260S127-11 276-11c77 0 131 17 162 31l-16 63c-32-14-71-25-134-25-89 0-164 49-166 168m1 63c7 61 45 142 135 142 99 0 123-87 122-142M228 667l-90-117h67l54 73h2l53-73h69l-91 117m-104 12c2 23 10 39 26 39 12 0 23-6 43-16 21-11 39-21 61-21 47 0 69 33 68 96h-47c-2-32-11-41-27-41-12 0-26 8-42 16-24 12-41 22-62 22-43 0-69-38-68-95z" horiz-adv-x="501" unicode="ễ"/>
    <glyph d="M424 388H163v213h277v73H75V0h380v73H163v243h261M227 824 125 710h71l64 69h2l63-69h74L294 824M260-181c28 0 49 24 49 51 0 26-21 50-48 50-28 0-50-24-50-50 0-27 21-51 49-51z" horiz-adv-x="492" unicode="Ệ"/>
    <glyph d="M462 226c2 10 3 23 3 41 0 89-41 227-200 227-141 0-227-114-227-260S127-11 276-11c77 0 131 17 162 31l-16 63c-32-14-71-25-134-25-89 0-164 49-166 168m1 63c7 61 45 142 135 142 99 0 123-87 122-142M219 693l-94-143h66l58 94h2l58-94h67l-96 143M250-80c-28 0-51-24-51-52s21-51 50-51c30 0 50 23 50 51 0 29-21 52-49 52z" horiz-adv-x="501" unicode="ệ"/>
    <glyph d="M75 674V0h88v674m-20 35c27 46 72 57 72 108 0 40-37 72-83 72-51 0-81-31-99-67l33-20c12 17 29 35 50 35 20 0 33-12 33-32 0-32-36-40-52-83z" horiz-adv-x="239" unicode="Ỉ"/>
    <glyph d="M161 0v484H73V0m58 530c23 46 76 61 76 117 0 45-37 75-84 75-50 0-81-30-98-66l34-21c11 18 27 35 48 35 19 0 34-13 34-33 0-37-45-51-57-95z" horiz-adv-x="234" unicode="ỉ"/>
    <glyph d="M75 674V0h88v674m-43-855c28 0 49 24 49 51 0 26-21 50-48 50-28 0-50-24-50-50 0-27 21-51 49-51z" horiz-adv-x="239" unicode="Ị"/>
    <glyph d="M161 0v484H73V0m44 675c-33 0-55-25-55-55s21-54 53-54c35 0 56 24 56 54 0 31-22 55-54 55m0-755c-28 0-51-23-51-52 0-27 21-51 50-51 30 0 50 24 50 51 0 29-21 52-49 52z" horiz-adv-x="234" unicode="ị"/>
    <glyph d="M348 686C168 686 36 546 36 332 36 128 160-11 339-11c172 0 313 124 313 355 0 201-119 342-304 342m-3-71c145 0 215-140 215-275 0-153-78-280-216-280S128 189 128 334c0 147 72 281 217 281m-1-796c28 0 49 24 49 51 0 26-21 50-48 50-28 0-50-24-50-50 0-27 21-51 49-51z" horiz-adv-x="689" unicode="Ọ"/>
    <glyph d="M278 495c-133 0-240-95-240-257C38 85 140-11 270-11c116 0 241 78 241 257 0 148-94 249-233 249m-2-66c104 0 145-104 145-186 0-109-63-188-147-188-86 0-146 80-146 186 0 92 45 188 148 188m-2-510c-28 0-51-23-51-51s21-52 50-52c30 0 50 24 50 52 0 29-21 51-49 51z" horiz-adv-x="549" unicode="ọ"/>
    <glyph d="M348 686C168 686 36 546 36 332 36 128 160-11 339-11c172 0 313 124 313 355 0 201-119 342-304 342m-3-71c145 0 215-140 215-275 0-153-78-280-216-280S128 189 128 334c0 147 72 281 217 281m23 95c27 46 71 57 71 108 0 41-37 72-83 72-51 0-81-31-99-67l34-20c11 17 28 35 49 35 20 0 33-12 33-31 0-33-36-41-52-84z" horiz-adv-x="689" unicode="Ỏ"/>
    <glyph d="M278 494c-133 0-240-95-240-256C38 85 140-11 270-11c116 0 241 78 241 257 0 147-94 248-233 248m-2-66c104 0 145-103 145-185 0-109-63-188-147-188-86 0-146 80-146 186 0 91 45 187 148 187m12 101c23 46 76 62 76 117 0 45-37 75-84 75-50 0-81-30-98-66l34-21c11 18 27 35 48 35 19 0 34-13 34-33 0-37-45-51-57-95z" horiz-adv-x="549" unicode="ỏ"/>
    <glyph d="M349 686C168 684 36 544 36 331 36 127 160-11 339-11c172 0 313 124 313 355 1 201-119 342-303 342m-3-71c144-1 214-141 214-275 0-153-78-280-216-280S128 189 128 333c1 148 73 282 218 282m-25 210-92-114h68l55 70h2l55-70h70l-94 114m130 76-84-105h52l121 105z" horiz-adv-x="689" unicode="Ố"/>
    <glyph d="M278 494c-133 0-240-95-240-256C38 85 140-11 270-11c116 0 241 78 241 257 0 147-94 248-233 248m-2-66c104 0 145-103 145-185 0-109-63-188-147-188-86 0-146 80-146 186 0 91 45 187 148 187m-30 265-84-143h64l51 94h2l51-94h67l-86 143m127 81-69-131h51l99 131z" horiz-adv-x="549" unicode="ố"/>
    <glyph d="M348 686C168 684 36 544 36 331 36 127 160-11 339-11c172 0 313 124 313 355 0 201-119 342-304 342m-3-71c145-1 215-141 215-275 0-153-78-280-216-280S128 189 128 333c0 148 72 282 217 282m34 267 110-105h53l-72 105m-153-57-93-114h68l55 70h2l55-70h70l-94 114z" horiz-adv-x="689" unicode="Ồ"/>
    <glyph d="M278 494c-133 0-240-95-240-256C38 85 140-11 270-11c116 0 241 78 241 257 0 147-94 248-233 248m-2-66c104 0 145-103 145-185 0-109-63-188-147-188-86 0-146 80-146 186 0 91 45 187 148 187m42 346 93-131h51l-64 131m-151-81-84-143h64l50 94h3l50-94h67l-86 143z" horiz-adv-x="549" unicode="ồ"/>
    <glyph d="M348 686C168 686 36 546 36 332 36 128 160-11 339-11c172 0 313 124 313 355 0 201-119 342-304 342m-3-71c145 0 215-140 215-275 0-153-78-280-216-280S128 189 128 334c0 147 72 281 217 281m-28 209-92-114h68l55 70h2l55-70h70l-94 114m119-70c26 46 69 56 69 104 0 39-34 70-79 70-49 0-78-29-96-64l32-19c12 17 28 37 50 37 19 0 34-14 34-33 0-32-36-42-52-83z" horiz-adv-x="689" unicode="Ổ"/>
    <glyph d="M278 494c-133 0-240-95-240-256C38 85 140-11 270-11c116 0 241 78 241 257 0 147-94 248-233 248m-2-66c104 0 145-103 145-185 0-109-63-188-147-188-86 0-146 80-146 186 0 91 45 187 148 187m-35 265-84-143h64l51 94h2l51-94h66l-85 143m115-59c26 45 68 54 68 103 0 39-34 71-79 71-49 0-78-30-95-64l32-20c11 17 27 36 47 36 19 0 34-14 34-32 0-32-35-41-51-82z" horiz-adv-x="549" unicode="ổ"/>
    <glyph d="M348 686C168 686 36 546 36 332 36 128 160-11 339-11c172 0 313 124 313 355 0 201-119 342-304 342m-3-71c145 0 215-140 215-275 0-153-78-280-216-280S128 189 128 334c0 147 72 281 217 281m-35 209L208 710h71l64 69h2l63-69h74L377 824m-104 13c1 24 10 40 25 40 12 0 24-6 44-17s39-21 60-21c47 0 70 34 68 96h-46c-2-32-12-41-28-41-12 0-26 8-42 16-23 12-40 22-62 22-42 0-69-38-68-95z" horiz-adv-x="689" unicode="Ỗ"/>
    <glyph d="M278 494c-133 0-240-95-240-256C38 85 140-11 270-11c116 0 241 78 241 257 0 147-94 248-233 248m-2-66c104 0 145-103 145-185 0-109-63-188-147-188-86 0-146 80-146 186 0 91 45 187 148 187m-35 239-89-117h67l53 73h2l54-73h69l-91 117m-104 12c2 23 10 39 26 39 12 0 23-6 43-16 21-11 39-21 61-21 47 0 69 33 68 96h-47c-2-32-11-41-27-41-12 0-26 8-42 16-24 12-41 22-62 22-43 0-69-38-68-95z" horiz-adv-x="549" unicode="ỗ"/>
    <glyph d="M348 686C168 686 36 546 36 332 36 128 160-11 339-11c172 0 313 124 313 355 0 201-119 342-304 342m-3-71c145 0 215-140 215-275 0-153-78-280-216-280S128 189 128 334c0 147 72 281 217 281m-36 209L207 710h71l64 69h2l63-69h74L376 824M344-181c28 0 49 24 49 51 0 26-21 50-48 50-28 0-50-24-50-50 0-27 21-51 49-51z" horiz-adv-x="689" unicode="Ộ"/>
    <glyph d="M278 495c-133 0-240-95-240-257C38 85 140-11 270-11c116 0 241 78 241 257 0 148-94 249-233 249m-2-66c104 0 145-104 145-186 0-109-63-188-147-188-86 0-146 80-146 186 0 92 45 188 148 188m-34 264-94-143h66l58 94h2l58-94h67l-96 143M274-80c-28 0-51-24-51-52s21-51 50-51c30 0 50 23 50 51 0 29-21 52-49 52z" horiz-adv-x="549" unicode="ộ"/>
    <glyph d="M344 60c-138 0-216 131-216 274 0 145 72 281 217 281s215-140 215-275c0-153-78-280-216-280m248 681c10-19 17-40 17-64 0-30-12-44-45-44-32 0-80 25-111 35-26 10-64 18-105 18-180 0-312-140-312-354C36 128 160-11 339-11c172 0 313 124 313 355 0 106-33 187-78 238 72-6 105 35 105 90 0 33-9 60-19 81m-268 74-92-117h71l128 117z" horiz-adv-x="689" unicode="Ớ"/>
    <glyph d="M276 428c105 1 146-102 146-184-1-110-64-189-148-189-86 0-146 80-146 186 0 91 45 187 148 187m194 126c10-18 17-38 17-59-1-26-15-40-41-40-31 0-61 19-85 26-27 8-53 13-83 13-133 0-240-95-240-256C38 85 140-11 270-11c116 0 241 78 241 257 0 64-18 119-50 160 61-3 93 33 93 86 0 28-7 53-17 73M319 693l-88-143h62l122 143z" horiz-adv-x="553" unicode="ớ"/>
    <glyph d="M344 60c-138 0-216 131-216 274 0 145 72 281 217 281s215-140 215-275c0-153-78-280-216-280m248 681c10-19 17-40 17-64 0-29-12-44-45-44-32 0-80 25-111 35-26 10-64 18-105 18-180 0-312-140-312-354C36 128 160-11 339-11c172 0 313 124 313 355 0 106-33 187-78 238 72-6 105 35 105 90 0 33-9 60-19 81m-454 74 128-116h71l-93 116z" horiz-adv-x="689" unicode="Ờ"/>
    <glyph d="M276 428c105 1 146-102 146-184-1-110-64-189-148-189-86 0-146 80-146 186 0 91 45 187 148 187m194 126c10-18 17-38 17-59-1-26-15-40-41-40-31 0-61 19-85 26-27 8-53 13-83 13-133 0-240-95-240-256C38 85 140-11 270-11c116 0 241 78 241 257 0 64-18 119-50 160 61-3 93 33 93 86 0 28-7 53-17 73M147 693l122-143h62l-88 143z" horiz-adv-x="553" unicode="ờ"/>
    <glyph d="M344 60c-138 0-216 131-216 274 0 145 72 281 217 281s215-140 215-275c0-153-78-280-216-280m248 681c10-18 17-40 17-64 0-30-12-45-45-45-32 0-80 26-111 36-26 10-64 18-105 18-180 0-312-140-312-354C36 128 160-11 339-11c172 0 313 124 313 355 0 106-33 187-78 238 72-6 105 35 105 90 0 34-9 60-19 82m-292-44c27 46 71 57 71 108 0 41-37 72-83 72-51 0-81-31-99-67l34-20c11 17 28 35 49 35 20 0 33-12 33-31 0-33-36-41-52-84z" horiz-adv-x="689" unicode="Ở"/>
    <glyph d="M276 428c105 1 146-102 146-184-1-110-64-189-148-189-86 0-146 80-146 186 0 91 45 187 148 187m194 125c10-17 17-37 17-58-1-26-15-40-41-40-31 0-61 19-85 26-27 8-53 13-83 13-133 0-240-95-240-256C38 85 140-11 270-11c116 0 241 78 241 257 0 64-18 119-50 160 61-3 93 33 93 86 0 28-7 53-17 73m-249-36c23 46 76 62 76 117 0 45-37 75-85 75-49 0-80-30-97-66l34-21c11 18 27 35 48 35 19 0 34-13 34-33 0-37-45-51-57-95z" horiz-adv-x="553" unicode="ở"/>
    <glyph d="M344 60c-138 0-216 131-216 273 0 146 72 282 217 282 145-1 215-141 215-275 0-153-78-280-216-280m248 680c10-18 17-40 17-64 0-29-12-44-45-44s-81 26-111 36c-26 10-64 18-105 18-180-1-312-141-312-355C36 127 160-11 339-11c172 0 313 124 313 355 0 106-33 186-78 238 72-7 105 34 105 89 0 34-9 60-19 81m-386-37c3 27 10 44 26 44 15 0 28-9 47-19 22-11 40-19 61-19 46 0 68 34 67 97h-46c-3-32-12-39-27-39-16 0-32 9-48 18-21 11-37 20-60 20-42 0-68-41-67-102z" horiz-adv-x="689" unicode="Ỡ"/>
    <glyph d="M276 428c105 1 146-102 146-184-1-110-64-189-148-189-86 0-146 80-146 186-1 91 44 187 148 187m194 126c10-17 17-38 17-59-1-26-15-40-42-40-31 0-60 19-85 27-26 7-52 12-82 12-133 0-240-95-240-256C38 85 140-11 270-11c116 0 241 78 241 257 0 64-18 119-50 160 61-3 93 33 93 86 0 28-7 53-17 74m-338 1c2 28 10 45 26 45 12 0 23-6 43-18 20-10 39-20 61-20 48-1 70 34 69 100h-47c-2-33-12-42-28-42-12 0-26 8-42 17-24 13-41 23-63 23-42 0-69-39-67-105z" horiz-adv-x="553" unicode="ỡ"/>
    <glyph d="M344 60c-138 0-216 131-216 274 0 145 72 281 217 281s215-140 215-275c0-153-78-280-216-280m248 681c10-18 17-40 17-64 0-30-12-45-45-45-32 0-80 26-111 36-26 10-64 18-105 18-180 0-312-140-312-354C36 128 160-11 339-11c172 0 313 124 313 355 0 106-33 187-78 238 72-6 105 35 105 90 0 34-9 60-19 82M344-181c28 0 49 24 49 51 0 26-21 50-48 50-28 0-50-24-50-50 0-27 21-51 49-51z" horiz-adv-x="689" unicode="Ợ"/>
    <glyph d="M276 428c105 1 146-102 146-184-1-110-64-189-148-189-86 0-146 80-146 186 0 91 45 187 148 187m194 125c10-17 17-37 17-58-1-26-15-40-41-40-31 0-61 19-85 26-27 8-53 13-83 13-133 0-240-95-240-256C38 85 140-11 270-11c116 0 241 78 241 257 0 64-18 119-50 160 61-3 93 33 93 86 0 28-7 53-17 73M276-80c-28 0-51-23-51-52 0-27 21-51 50-51 30 0 50 24 50 51 0 29-21 52-49 52z" horiz-adv-x="553" unicode="ợ"/>
    <glyph d="M75 674V277C75 67 179-11 317-11c146 0 255 84 255 291v394h-88V274c0-148-65-214-164-214-90 0-157 64-157 214v400m161-855c28 0 49 24 49 51 0 26-21 50-48 50-28 0-50-24-50-50 0-27 21-51 49-51z" horiz-adv-x="647" unicode="Ụ"/>
    <glyph d="M478 484h-88V188c0-17-3-33-8-45-16-40-57-81-116-81-79 0-108 63-108 155v267H70V201C70 32 161-11 237-11c86 0 138 51 160 90h2l5-79h78c-3 38-4 82-4 133M275-80c-28 0-51-23-51-52 0-27 21-51 50-51 30 0 50 24 50 51 0 29-21 52-49 52z" horiz-adv-x="551" unicode="ụ"/>
    <glyph d="M75 674V277C75 67 179-11 317-11c146 0 255 84 255 291v394h-88V274c0-148-65-214-164-214-90 0-157 64-157 214v400m184 35c27 46 72 57 72 108 0 40-37 72-83 72-51 0-81-31-99-67l33-20c12 17 29 35 50 35 19 0 33-12 33-32 0-32-36-40-52-83z" horiz-adv-x="647" unicode="Ủ"/>
    <glyph d="M478 484h-88V188c0-17-3-33-8-45-16-40-57-81-116-81-79 0-108 63-108 155v267H70V201C70 32 161-11 237-11c86 0 138 51 160 90h2l5-79h78c-3 38-4 82-4 133M290 530c22 46 75 61 75 117 0 45-37 75-84 75-50 0-81-30-98-66l34-21c11 18 27 35 49 35 18 0 33-13 33-33 0-37-45-51-57-95z" horiz-adv-x="551" unicode="ủ"/>
    <glyph d="M593 770c10-18 16-39 16-58 0-26-12-38-46-38h-79V274c0-148-65-214-164-214-90 0-157 64-157 214v400H75V277C75 67 179-11 317-11c146 0 255 84 255 291v341l15 1c60 2 90 36 90 85 0 28-7 53-17 75m-293 45-93-117h71l128 117z" horiz-adv-x="677" unicode="Ứ"/>
    <glyph d="M489 580c11-17 18-38 18-57 0-25-13-39-47-39h-70V188c0-17-3-33-8-45-16-40-57-81-116-81-79 0-108 62-108 154v268H70V201C70 32 161-11 237-11c86 0 138 51 160 90h2l5-79h78c-3 38-4 82-4 132v304h11c49 2 85 35 85 84 0 27-7 51-18 72M331 693l-88-143h62l122 143z" horiz-adv-x="551" unicode="ứ"/>
    <glyph d="M593 770c10-18 16-39 16-58 0-26-12-38-46-38h-79V274c0-148-65-214-164-214-90 0-157 64-157 214v400H75V277C75 67 179-11 317-11c146 0 255 84 255 291v341l15 1c60 2 90 36 90 85 0 28-7 53-17 75m-477 45 128-116h71l-93 116z" horiz-adv-x="677" unicode="Ừ"/>
    <glyph d="M489 580c11-17 18-38 18-57 0-25-13-39-47-39h-70V188c0-17-3-33-8-45-16-40-57-81-116-81-79 0-108 62-108 154v268H70V201C70 32 161-11 237-11c86 0 138 51 160 90h2l5-79h78c-3 38-4 82-4 132v304h11c49 2 85 35 85 84 0 27-7 51-18 72M146 693l122-143h62l-88 143z" horiz-adv-x="551" unicode="ừ"/>
    <glyph d="M593 770c10-18 16-39 16-58 0-26-12-38-46-38h-79V274c0-148-65-214-164-214-90 0-157 64-157 214v400H75V277C75 67 179-11 317-11c146 0 255 84 255 291v341l15 1c60 2 90 36 90 85 0 28-7 53-17 75m-297-73c26 46 71 57 71 108 0 40-37 72-83 72-51 0-81-31-99-67l34-20c11 17 28 35 49 35 20 0 33-12 33-32 0-32-36-40-52-83z" horiz-adv-x="677" unicode="Ử"/>
    <glyph d="M489 581c11-18 18-38 18-57 0-26-13-40-47-40h-70V188c0-17-3-33-8-45-16-40-57-81-116-81-79 0-108 62-108 154v268H70V201C70 32 161-11 237-11c86 0 138 51 160 90h2l5-79h78c-3 38-4 82-4 132v304h11c49 2 85 35 85 85 0 26-7 51-18 72m-258-63c23 46 75 61 75 117 0 45-37 75-84 75-50 0-80-30-98-66l34-21c11 18 27 35 49 35 18 0 33-13 33-33 0-37-45-51-57-95z" horiz-adv-x="551" unicode="ử"/>
    <glyph d="M593 770c10-18 16-39 16-57 0-27-12-39-46-39h-79V274c0-148-65-214-164-214-90 0-157 64-157 214v400H75V277C75 67 179-11 317-11c146 0 255 84 255 291v341l15 1c60 2 90 36 90 85 0 28-7 53-17 75m-399-67c3 27 10 44 26 44 15 0 28-9 47-19 23-11 41-19 62-19 46 0 68 34 67 97h-46c-3-32-12-39-27-39-16 0-32 9-48 18-22 11-38 20-60 20-43 0-69-41-68-102z" horiz-adv-x="677" unicode="Ữ"/>
    <glyph d="M489 580c11-17 18-38 18-57 0-25-13-39-47-39h-70V188c0-17-3-33-8-45-16-40-57-81-116-81-79 0-108 62-108 154v268H70V201C70 32 161-11 237-11c86 0 137 51 160 90h2l5-79h78c-3 38-4 82-4 132v304h11c49 2 85 35 85 84 0 27-7 52-18 72m-355-25c2 28 10 45 26 45 12 0 23-6 43-17 21-12 40-22 62-22 47 0 69 35 68 101h-47c-2-33-12-42-27-42-13 0-26 8-42 17-24 12-41 22-63 22-43 0-70-39-68-104z" horiz-adv-x="551" unicode="ữ"/>
    <glyph d="M593 770c10-18 16-39 16-58 0-26-12-38-46-38h-79V274c0-148-65-214-164-214-90 0-157 64-157 214v400H75V277C75 67 179-11 317-11c146 0 255 84 255 291v341l15 1c60 2 90 36 90 85 0 28-7 53-17 75M338-80c-28 0-51-23-51-52 0-27 21-51 50-51 30 0 50 24 50 51 0 29-21 52-49 52z" horiz-adv-x="677" unicode="Ự"/>
    <glyph d="M489 581c11-18 18-38 18-57 0-26-13-40-47-40h-70V188c0-17-3-33-8-45-16-40-57-81-116-81-79 0-108 62-108 154v268H70V201C70 32 161-11 237-11c86 0 138 51 160 90h2l5-79h78c-3 38-4 82-4 132v304h11c49 2 85 35 85 85 0 26-7 51-18 72M273-80c-28 0-51-23-51-52 0-27 21-51 50-51 30 0 50 24 50 51 0 29-21 52-49 52z" horiz-adv-x="551" unicode="ự"/>
    <glyph d="M314 0v287l225 387h-98l-97-186c-26-51-50-95-68-139h-2c-21 47-42 88-67 139l-95 186H12l214-388V0m44-181c28 0 49 24 49 51 0 26-21 50-48 50-28 0-50-24-50-50 0-27 21-51 49-51z" horiz-adv-x="541" unicode="Ỵ"/>
    <glyph d="M9 484 188 38c5-11 6-18 6-23s-2-12-7-21c-20-45-50-79-73-98-27-22-56-36-78-43l22-74c22 4 64 19 108 57 60 52 103 137 166 303l132 345h-93l-96-284c-12-35-22-72-31-101h-2c-8 29-20 67-32 99L105 484M326-80c-28 0-51-23-51-52 0-27 21-51 50-51 30 0 50 24 50 51 0 29-21 52-49 52z" horiz-adv-x="471" unicode="ỵ"/>
    <glyph d="M314 0v287l225 387h-98l-97-186c-26-51-50-95-68-139h-2c-21 47-42 88-67 139l-95 186H12l214-388V0m68 709c27 46 72 57 72 108 0 40-37 72-83 72-51 0-81-31-100-67l34-20c11 17 29 35 49 35s34-12 34-32c0-32-36-40-53-83z" horiz-adv-x="541" unicode="Ỷ"/>
    <glyph d="M9 484 187 38c5-11 7-18 7-23s-3-12-7-21c-21-45-50-79-74-98-26-22-55-36-77-43l22-73c22 4 64 19 108 56 60 53 103 137 166 303l132 345h-93l-96-284c-12-35-22-72-31-101h-2c-8 29-20 67-32 99L105 484m154 46c22 46 75 61 75 117 0 45-37 75-84 75-50 0-81-30-98-66l34-21c11 18 27 35 48 35 19 0 34-13 34-33 0-37-45-51-57-95z" horiz-adv-x="471" unicode="ỷ"/>
    <glyph d="M314 0v287l225 387h-98l-97-186c-26-51-50-95-68-139h-2c-21 47-42 88-67 139l-95 186H12l214-388V0m-33 715c3 27 10 44 26 44 15 0 28-9 48-19 21-11 40-19 61-19 46 0 68 34 67 97h-46c-3-32-12-39-27-39-16 0-32 9-48 18-21 11-38 20-60 20-43 0-69-41-68-102z" horiz-adv-x="541" unicode="Ỹ"/>
    <glyph d="M9 484 187 38c5-11 7-18 7-23s-3-12-7-21c-21-45-50-79-74-98-26-22-55-36-77-43l22-73c22 4 64 19 108 56 60 53 103 137 166 303l132 345h-93l-96-284c-12-35-22-72-31-101h-2c-8 29-20 67-32 99L105 484m61 83c2 28 10 45 26 45 12 0 23-6 43-17 21-12 40-22 62-22 47 0 69 35 68 101h-47c-2-33-12-42-27-42-13 0-27 8-43 17-23 12-40 22-62 22-43 0-70-39-68-104z" horiz-adv-x="471" unicode="ỹ"/>
    <glyph d="M30 302v-64h247v64z" horiz-adv-x="307" unicode="‐"/>
    <glyph d="M194 512c0 99 33 140 69 140s62-26 62-93c0-89-49-179-131-263m238-144c-25-37-71-88-136-88-59 0-101 34-102 134v15c132 117 204 226 204 348 0 92-50 153-130 153-89 0-158-63-158-219V231c-25-20-53-40-80-59l26-49c19 12 37 24 55 37 1-2 1-4 1-8 9-93 60-162 163-162 86 0 153 39 200 121z" horiz-adv-x="504" unicode="ℓ"/>
    <glyph d="M729 640c-88 0-160-64-160-177 0-110 68-172 158-172 80 0 158 52 158 177 0 104-60 172-156 172m-3-50c63 0 87-66 87-124 0-73-33-125-86-125-47 0-86 52-86 123 0 60 27 126 85 126m133-393v52H596v-52M152 0v269c0 115-2 194-5 278l2 1c30-74 65-148 102-221L423 0h89v654h-78V387c0-104 2-183 9-274l-1-1c-28 68-62 140-102 217L170 654H74V0z" horiz-adv-x="916" unicode="№"/>
    <glyph d="m-101-11 380 672h-56L-157-11z" horiz-adv-x="121" unicode="∕"/>
    <glyph d="M102 200c37 0 61 27 61 62 0 37-24 63-59 63s-60-26-60-63c0-35 24-62 58-62z" horiz-adv-x="207" unicode="∙"/>
    <glyph d="M478 484h-88V188c0-17-3-33-8-45-16-40-57-81-116-81-79 0-108 63-108 155v267H70V201C70 32 161-11 237-11c86 0 138 51 160 90h2l5-76c-18-27-48-74-48-123 0-57 38-87 93-87 25 0 60 8 81 23l-14 46c-11-5-26-9-45-9-29 0-51 18-51 52 0 36 26 77 41 98l21-3c-3 37-4 82-4 133z" horiz-adv-x="551" unicode="ų"/>
    <glyph d="M359 484c12-25 33-107 33-197 0-139-44-225-128-225-53 0-110 37-110 135v197c0 52-5 80-14 90H56c9-27 11-78 11-163V185C67 52 150-11 257-11c175 0 221 164 221 306 0 81-20 158-36 189z" horiz-adv-x="524" unicode="υ"/>
    <glyph d="M165 557c30 0 49 24 49 51 0 28-21 50-48 50-28 0-50-23-50-50s20-51 49-51m183 0c31 0 50 24 50 51 0 28-21 50-48 50-29 0-50-23-50-50s20-51 48-51m12-73c11-25 32-107 32-197 0-139-44-225-128-225-53 0-110 37-110 135v197c0 52-5 80-14 90H56c9-27 11-78 11-163V185C67 52 150-11 257-11c175 0 221 164 221 306 0 81-20 158-36 189z" horiz-adv-x="524" unicode="ϋ"/>
    <glyph d="M359 484c12-25 33-107 33-197 0-139-44-225-128-225-53 0-110 37-110 135v197c0 52-5 80-14 90H56c9-27 11-78 11-163V185C67 52 150-11 257-11c175 0 221 164 221 306 0 81-20 158-36 189M242 695l-21-156h47l49 156M139 560c28 0 46 21 46 46 0 26-19 46-44 46-26 0-47-20-47-46 0-25 19-46 45-46m242 0c29 0 47 21 47 46 0 26-19 46-45 46s-46-20-46-46c0-25 19-46 44-46z" horiz-adv-x="524" unicode="ΰ"/>
    <glyph d="m272 686-54-143h60l83 143m-2-202c12-25 33-107 33-197 0-139-44-225-128-225-53 0-110 37-110 135v197c0 52-5 80-14 90H56c9-27 11-78 11-163V185C67 52 150-11 257-11c175 0 221 164 221 306 0 81-20 158-36 189z" horiz-adv-x="524" unicode="ύ"/>
    <glyph d="M478 484h-88V188c0-17-3-33-8-45-16-40-57-81-116-81-79 0-108 63-108 155v267H70V201C70 32 161-11 237-11c86 0 138 51 160 90h2l5-79h78c-3 38-4 82-4 133M276 537c57 0 100 39 100 91 0 54-39 94-99 94-63 0-103-41-103-94 0-51 42-91 102-91m-1 37c-30 0-50 27-50 54 0 31 19 57 49 57 33 0 53-25 53-56 0-30-20-55-52-55z" horiz-adv-x="551" unicode="ů"/>
    <glyph d="M478 484h-88V188c0-17-3-33-8-45-16-40-57-81-116-81-79 0-108 63-108 155v267H70V201C70 32 161-11 237-11c86 0 138 51 160 90h2l5-79h78c-3 38-4 82-4 133M200 567c2 28 10 45 26 45 12 0 23-6 43-17 21-12 40-22 62-22 47 0 69 35 68 101h-47c-2-33-12-42-27-42-13 0-26 8-42 17-24 12-41 22-63 22-43 0-70-39-68-104z" horiz-adv-x="551" unicode="ũ"/>
    <glyph d="M13 484 197 0h84l190 484h-92l-94-271c-16-45-30-85-41-125h-3c-10 40-23 80-39 125l-95 271z" horiz-adv-x="481" unicode="v"/>
    <glyph d="M18 484 164 0h80l78 230c17 52 32 102 44 160h2c12-57 26-105 43-159L485 0h80l156 484h-87l-69-243c-16-57-29-108-37-157h-3c-11 49-25 100-43 158l-75 242h-74l-79-247c-16-52-32-104-43-153h-3c-9 50-22 100-35 154l-65 246z" horiz-adv-x="736" unicode="w"/>
    <glyph d="M18 484 164 0h80l78 230c17 52 32 102 44 160h2c12-57 26-105 43-159L485 0h80l156 484h-87l-69-243c-16-57-29-108-37-157h-3c-11 49-25 100-43 158l-75 242h-74l-79-247c-16-52-32-104-43-153h-3c-9 50-22 100-35 154l-65 246m303 209-88-143h62l122 143z" horiz-adv-x="736" unicode="ẃ"/>
    <glyph d="M18 484 164 0h80l78 230c17 52 32 102 44 160h2c12-57 26-105 43-159L485 0h80l156 484h-87l-69-243c-16-57-29-108-37-157h-3c-11 49-25 100-43 158l-75 242h-74l-79-247c-16-52-32-104-43-153h-3c-9 50-22 100-35 154l-65 246m229 209-95-143h66l58 94h2l58-94h67l-96 143z" horiz-adv-x="736" unicode="ŵ"/>
    <glyph d="M18 484 164 0h80l78 230c17 52 32 102 44 160h2c12-57 26-105 43-159L485 0h80l156 484h-87l-69-243c-16-57-29-108-37-157h-3c-11 49-25 100-43 158l-75 242h-74l-79-247c-16-52-32-104-43-153h-3c-9 50-22 100-35 154l-65 246m166 86c30 0 50 24 50 51 0 29-21 51-48 51-29 0-51-23-51-51 0-27 21-51 49-51m186 0c30 0 50 24 50 51 0 29-21 51-49 51s-50-23-50-51c0-27 20-51 49-51z" horiz-adv-x="736" unicode="ẅ"/>
    <glyph d="M18 484 164 0h80l78 230c17 52 32 102 44 160h2c12-57 26-105 43-159L485 0h80l156 484h-87l-69-243c-16-57-29-108-37-157h-3c-11 49-25 100-43 158l-75 242h-74l-79-247c-16-52-32-104-43-153h-3c-9 50-22 100-35 154l-65 246m129 209 122-143h62l-88 143z" horiz-adv-x="736" unicode="ẁ"/>
    <glyph d="m16 484 164-237L8 0h97l70 109c19 29 35 55 51 84h2c17-29 33-56 52-84L352 0h99L282 250l165 234h-96l-67-103c-17-26-33-51-49-79h-2c-16 27-31 51-50 78l-69 104z" horiz-adv-x="463" unicode="x"/>
    <glyph d="M361 434c-17 0-34 1-48 1-79 3-141 41-141 112 0 56 42 109 126 109 42 0 79-12 98-23l19 61c-28 16-69 27-122 27-140 0-209-85-209-169 0-65 37-117 111-141v-5c-86-23-156-98-156-194C39 43 208 3 341-16c-1-25-19-87-32-110l57-17c28 35 60 123 60 175 0 6-4 11-10 11-40 5-85 12-132 24-99 27-154 72-154 153 0 83 65 150 204 151h27z" horiz-adv-x="433" unicode="ξ"/>
    <glyph d="M9 484 187 38c5-11 7-18 7-23s-3-12-7-21c-21-45-50-79-74-98-26-22-55-36-77-43l22-73c22 4 64 19 108 56 60 53 103 137 166 303l132 345h-93l-96-284c-12-35-22-72-31-101h-2c-8 29-20 67-32 99L105 484z" horiz-adv-x="471" unicode="y"/>
    <glyph d="M9 484 187 38c5-11 7-18 7-23s-3-12-7-21c-21-45-50-79-74-98-26-22-55-36-77-43l22-73c22 4 64 19 108 56 60 53 103 137 166 303l132 345h-93l-96-284c-12-35-22-72-31-101h-2c-8 29-20 67-32 99L105 484m180 209-87-143h62l122 143z" horiz-adv-x="471" unicode="ý"/>
    <glyph d="M9 484 187 38c5-11 7-18 7-23s-3-12-7-21c-21-45-50-79-74-98-26-22-55-36-77-43l22-73c22 4 64 19 108 56 60 53 103 137 166 303l132 345h-93l-96-284c-12-35-22-72-31-101h-2c-8 29-20 67-32 99L105 484m101 209-94-143h66l58 94h2l58-94h67l-96 143z" horiz-adv-x="471" unicode="ŷ"/>
    <glyph d="M9 484 187 38c5-11 7-18 7-23s-3-12-7-21c-21-45-50-79-74-98-26-22-55-36-77-43l22-73c22 4 64 19 108 56 60 53 103 137 166 303l132 345h-93l-96-284c-12-35-22-72-31-101h-2c-8 29-20 67-32 99L105 484m49 86c30 0 50 24 50 51 0 29-21 51-48 51-29 0-51-23-51-51 0-27 21-51 49-51m185 0c30 0 50 24 50 51 0 29-21 51-49 51s-50-23-50-51c0-27 20-51 49-51z" horiz-adv-x="471" unicode="ÿ"/>
    <glyph d="M292 0v176h156v49H292v73h156v49H318l179 303h-92L297 446c-17-34-30-65-40-93h-3c-12 30-24 57-40 91L110 650H16l169-303H54v-49h155v-73H54v-49h155V0z" horiz-adv-x="513" unicode="¥"/>
    <glyph d="M305 0v115h154v49H305v60h154v49H332l160 242h-91l-91-152c-15-28-31-55-42-80h-2c-11 24-23 48-39 78l-86 154H48l149-242H70v-49h152v-60H70v-49h152V0z" horiz-adv-x="530" unicode=""/>
    <glyph d="M9 484 187 38c5-11 7-18 7-23s-3-12-7-21c-21-45-50-79-74-98-26-22-55-36-77-43l22-73c22 4 64 19 108 56 60 53 103 137 166 303l132 345h-93l-96-284c-12-35-22-72-31-101h-2c-8 29-20 67-32 99L105 484m3 209 122-143h62l-88 143z" horiz-adv-x="471" unicode="ỳ"/>
    <glyph d="M18 0h392v70H128v2c22 24 41 49 62 76l216 281v55H38v-70h262v-2c-22-26-42-49-64-76L18 51z" horiz-adv-x="428" unicode="z"/>
    <glyph d="M18 0h392v70H128v2c22 24 41 49 62 76l216 281v55H38v-70h262v-2c-22-26-42-49-64-76L18 51m242 642-87-143h62l122 143z" horiz-adv-x="428" unicode="ź"/>
    <glyph d="M18 0h392v70H128v2c22 24 41 49 62 76l216 281v55H38v-70h262v-2c-22-26-42-49-64-76L18 51m241 499 94 143h-66l-59-95h-2l-59 95h-67l96-143z" horiz-adv-x="428" unicode="ž"/>
    <glyph d="M18 0h392v70H128v2c22 24 41 49 62 76l216 281v55H38v-70h262v-2c-22-26-42-49-64-76L18 51m198 519c30 0 50 24 50 51 0 29-21 52-49 52s-51-23-51-52c0-27 21-51 50-51z" horiz-adv-x="428" unicode="ż"/>
    <glyph d="M263 661C131 661 36 542 36 323c2-215 89-334 216-334 143 0 226 122 226 343 0 207-79 329-215 329m-6-68c92 0 132-105 132-265 0-166-43-271-132-271-80 0-132 96-132 265 0 177 56 271 132 271z" horiz-adv-x="513" unicode="0"/>
    <glyph d="M165-5c98 0 148 81 148 203 0 121-51 197-143 197-90 0-147-77-147-201S78-5 165-5m3 51c-46 0-75 54-75 150 0 94 30 148 75 148 50 0 75-55 75-148 0-94-26-150-75-150z" horiz-adv-x="336" unicode=""/>
    <glyph d="M263 661C131 661 36 542 36 323c2-215 89-334 216-334 143 0 226 122 226 343 0 207-79 329-215 329m-6-68c92 0 132-105 132-265 0-166-43-271-132-271-80 0-132 96-132 265 0 177 56 271 132 271z" horiz-adv-x="513" unicode=""/>
    <glyph d="M165-152c98 0 148 81 148 203 0 121-51 197-143 197-90 0-147-77-147-201s55-199 142-199m3 51c-46 0-75 54-75 151 0 93 30 147 75 147 50 0 75-54 75-147 0-95-26-151-75-151z" horiz-adv-x="336" unicode="₀"/>
    <glyph d="M165 261c98 0 148 81 148 203 0 121-51 197-143 197-90 0-147-77-147-201s55-199 142-199m3 51c-46 0-75 54-75 150 0 94 30 148 75 148 50 0 75-55 75-148 0-94-26-150-75-150z" horiz-adv-x="336" unicode=""/>
    <glyph d="M264-11c126 0 226 96 226 254 0 161-101 253-225 253-125 0-225-96-225-253C40 81 141-11 264-11m2 67c-89 0-141 79-141 187 0 107 52 186 140 186s140-79 140-186c0-108-52-187-139-187z" horiz-adv-x="530" unicode=""/>
    <glyph d="M145 168c-16 43-25 97-24 160 1 160 53 265 136 265 40 0 70-19 90-51m24-60c14-44 21-96 21-154 0-166-45-271-137-271-36 0-64 17-86 49m304 543-44 29-39-66c-34 33-77 49-128 49-132 0-227-118-226-338 1-104 21-187 56-242L46 7l44-31 36 63c35-34 78-50 126-50 143 0 225 122 225 343 0 100-18 181-53 238z" horiz-adv-x="513" unicode=""/>
    <glyph d="M145 168c-16 43-25 97-24 160 1 160 53 265 136 265 40 0 70-19 90-51m24-60c14-44 21-96 21-154 0-166-45-271-137-271-36 0-64 17-86 49m304 543-44 29-39-66c-34 33-77 49-128 49-132 0-227-118-226-338 1-104 21-187 56-242L46 7l44-31 36 63c35-34 78-50 126-50 143 0 225 122 225 343 0 100-18 181-53 238z" horiz-adv-x="513" unicode=""/>
    <glyph d="M165 437c98 0 148 81 148 204 0 121-51 197-143 197-90 0-147-77-147-201 0-125 55-200 142-200m3 51c-46 0-75 55-75 151 0 93 30 148 75 148 50 0 75-55 75-148 0-95-26-151-75-151z" horiz-adv-x="336" unicode="⁰"/>
    <glyph d="M264-11c126 0 226 96 226 254 0 161-101 253-225 253-125 0-225-96-225-253C40 81 141-11 264-11m2 67c-89 0-141 79-141 187 0 107 52 186 140 186s140-79 140-186c0-108-52-187-139-187z" horiz-adv-x="530" unicode=""/>
    <glyph d="M341-143c27 35 60 117 60 175 0 6-4 10-9 11-46 6-94 13-140 30-73 26-124 68-124 176 0 146 119 317 279 398l-13 61H227c-45 0-90 0-122 4l-9-58c30-9 71-11 117-11h71v-3C129 534 39 371 39 233c0-128 71-193 159-222 40-14 83-22 118-27-1-26-19-87-33-110z" horiz-adv-x="409" unicode="ζ"/>
  </font>
</svg>
