<svg xmlns="http://www.w3.org/2000/svg">
<defs>
<font
   id="EmbeddedFont_1"
   horiz-adv-x="2048"
   horiz-origin-x="0"
   horiz-origin-y="0"
   vert-origin-x="512"
   vert-origin-y="768"
   vert-adv-y="1024">
   <font-face
   font-family="Times New Roman embedded"
   units-per-em="2048"
   font-weight="normal"
   font-style="normal"
   ascent="1826"
   descent="450"
   id="font-face10" />
   <missing-glyph
   horiz-adv-x="2048"
   d="M 0,0 L 2047,0 2047,2047 0,2047 0,0 Z"
   id="missing-glyph12" />
   <glyph
   unicode="y"
   horiz-adv-x="1033"
   d="M 199,-442 C 147,-442 96,-436 45,-424 L 45,-221 92,-221 125,-317 C 146,-332 174,-340 211,-340 246,-340 278,-330 307,-310 336,-290 363,-260 388,-221 412,-182 442,-111 479,-10 L 121,870 25,895 25,940 461,940 461,895 313,868 567,211 813,870 666,895 666,940 1016,940 1016,895 918,874 551,-59 C 508,-169 470,-248 438,-296 406,-344 371,-380 332,-405 293,-430 249,-442 199,-442 Z"
   id="glyph14" />
   <glyph
   unicode="v"
   horiz-adv-x="1033"
   d="M 557,-20 L 483,-20 96,870 0,895 0,940 438,940 438,895 289,868 563,219 825,870 676,895 676,940 1024,940 1024,895 934,874 557,-20 Z"
   id="glyph16" />
   <glyph
   unicode="u"
   horiz-adv-x="980"
   d="M 313,268 C 313,153 366,96 473,96 556,96 633,106 705,127 L 705,870 563,895 563,940 870,940 870,70 989,45 989,0 715,0 707,76 C 660,50 605,28 543,9 481,-10 429,-20 387,-20 227,-20 147,72 147,256 L 147,870 27,895 27,940 313,940 313,268 Z"
   id="glyph18" />
   <glyph
   unicode="t"
   horiz-adv-x="557"
   d="M 334,-20 C 270,-20 222,-1 191,37 159,75 143,128 143,197 L 143,856 20,856 20,901 145,940 246,1153 309,1153 309,940 524,940 524,856 309,856 309,215 C 309,172 319,139 339,117 358,95 384,84 416,84 455,84 502,89 557,100 L 557,35 C 534,19 500,6 456,-5 412,-15 371,-20 334,-20 Z"
   id="glyph20" />
   <glyph
   unicode="s"
   horiz-adv-x="663"
   d="M 723,264 C 723,171 694,100 635,52 576,4 488,-20 373,-20 326,-20 275,-15 219,-6 162,4 118,15 86,27 L 86,258 131,258 180,127 C 230,82 295,59 375,59 504,59 569,114 569,225 569,306 518,364 416,399 L 327,428 C 260,450 211,472 180,495 149,518 126,546 109,579 92,612 84,651 84,698 84,781 112,846 169,894 225,941 301,965 397,965 466,965 552,955 655,934 L 655,729 608,729 566,838 C 531,869 475,885 399,885 345,885 304,872 276,845 247,818 233,782 233,737 233,699 246,667 272,641 297,615 336,593 388,576 486,543 550,518 580,503 610,488 636,469 657,447 678,424 694,399 706,370 717,341 723,306 723,264 Z"
   id="glyph22" />
   <glyph
   unicode="r"
   horiz-adv-x="636"
   d="M 664,965 L 664,711 621,711 563,821 C 530,821 490,817 445,808 399,799 359,787 326,772 L 326,70 487,45 487,0 41,0 41,45 160,70 160,870 41,895 41,940 315,940 324,823 C 364,856 418,888 487,919 555,950 609,965 649,965 L 664,965 Z"
   id="glyph24" />
   <glyph
   unicode="q"
   horiz-adv-x="953"
   d="M 813,985 L 883,985 883,-365 987,-389 987,-436 588,-436 588,-389 717,-365 717,-104 C 717,-39 720,16 727,63 656,8 566,-20 459,-20 202,-20 74,142 74,467 74,628 110,751 183,837 255,922 361,965 500,965 575,965 649,957 723,942 L 813,985 Z M 254,467 C 254,340 275,244 318,180 360,116 425,84 514,84 553,84 592,87 631,94 669,101 698,108 717,117 L 717,866 C 658,877 590,883 514,883 341,883 254,744 254,467 Z"
   id="glyph26" />
   <glyph
   unicode="p"
   horiz-adv-x="928"
   d="M 152,870 L 45,895 45,940 309,940 311,885 C 339,909 377,928 424,943 471,958 518,965 567,965 687,965 780,923 846,840 911,757 944,637 944,481 944,322 908,198 837,111 765,24 661,-20 526,-20 451,-20 379,-13 311,2 315,-46 317,-84 317,-111 L 317,-365 481,-389 481,-436 33,-436 33,-389 152,-365 152,870 Z M 764,481 C 764,609 743,704 702,767 660,829 597,860 512,860 434,860 369,849 317,827 L 317,76 C 376,65 441,59 512,59 680,59 764,200 764,481 Z"
   id="glyph28" />
   <glyph
   unicode="o"
   horiz-adv-x="901"
   d="M 946,475 C 946,145 799,-20 506,-20 365,-20 258,22 186,107 114,192 78,314 78,475 78,634 114,755 186,839 258,923 367,965 514,965 657,965 764,924 837,842 910,759 946,637 946,475 Z M 766,475 C 766,619 745,723 703,788 661,853 595,885 506,885 419,885 356,854 317,792 278,730 258,624 258,475 258,324 278,217 318,154 357,91 420,59 506,59 594,59 659,92 702,157 745,222 766,328 766,475 Z"
   id="glyph30" />
   <glyph
   unicode="n"
   horiz-adv-x="980"
   d="M 324,864 C 375,893 430,918 488,937 546,956 594,965 633,965 714,965 776,941 817,894 858,847 879,778 879,688 L 879,70 993,45 993,0 588,0 588,45 713,70 713,670 C 713,725 700,769 673,801 646,832 604,848 547,848 487,848 413,838 326,819 L 326,70 453,45 453,0 47,0 47,45 160,70 160,870 47,895 47,940 315,940 324,864 Z"
   id="glyph32" />
   <glyph
   unicode="m"
   horiz-adv-x="1536"
   d="M 326,864 C 376,893 429,917 485,936 541,955 590,965 633,965 679,965 722,956 761,939 800,922 829,894 848,856 899,885 960,910 1029,932 1098,954 1155,965 1200,965 1360,965 1440,873 1440,688 L 1440,70 1561,45 1561,0 1134,0 1134,45 1274,70 1274,670 C 1274,785 1221,842 1114,842 1097,842 1077,841 1054,838 1031,835 1008,832 985,829 962,826 940,822 919,818 898,813 880,810 866,807 877,771 883,731 883,688 L 883,70 1024,45 1024,0 578,0 578,45 717,70 717,670 C 717,725 703,768 675,798 646,827 604,842 547,842 488,842 415,832 328,813 L 328,70 469,45 469,0 43,0 43,45 162,70 162,870 43,895 43,940 318,940 326,864 Z"
   id="glyph34" />
   <glyph
   unicode="l"
   horiz-adv-x="504"
   d="M 367,70 L 528,45 528,0 41,0 41,45 201,70 201,1352 41,1376 41,1421 367,1421 367,70 Z"
   id="glyph36" />
   <glyph
   unicode="k"
   horiz-adv-x="1007"
   d="M 344,453 L 729,868 631,895 631,940 963,940 963,895 846,872 578,598 922,68 1024,45 1024,0 639,0 639,45 725,70 467,475 344,340 344,70 444,45 444,0 59,0 59,45 178,70 178,1352 39,1376 39,1421 344,1421 344,453 Z"
   id="glyph38" />
   <glyph
   unicode="i"
   horiz-adv-x="504"
   d="M 379,1247 C 379,1218 368,1192 347,1171 326,1150 300,1139 270,1139 241,1139 215,1150 194,1171 173,1192 162,1218 162,1247 162,1277 173,1303 194,1324 215,1345 241,1356 270,1356 300,1356 326,1345 347,1324 368,1303 379,1277 379,1247 Z M 369,70 L 530,45 530,0 43,0 43,45 203,70 203,870 70,895 70,940 369,940 369,70 Z"
   id="glyph40" />
   <glyph
   unicode="h"
   horiz-adv-x="1006"
   d="M 326,1014 C 326,945 324,895 319,864 367,891 422,915 483,935 544,955 595,965 637,965 718,965 780,941 821,894 862,847 883,778 883,688 L 883,70 997,45 997,0 592,0 592,45 717,70 717,676 C 717,791 662,848 551,848 488,848 413,838 326,819 L 326,70 453,45 453,0 41,0 41,45 160,70 160,1352 20,1376 20,1421 326,1421 326,1014 Z"
   id="glyph42" />
   <glyph
   unicode="g"
   horiz-adv-x="927"
   d="M 870,643 C 870,535 838,453 773,398 708,343 615,315 494,315 439,315 389,320 342,330 L 279,199 C 281,188 294,177 318,167 342,157 372,152 408,152 L 686,152 C 787,152 863,130 912,86 961,42 985,-19 985,-96 985,-166 966,-227 927,-279 888,-331 830,-371 755,-400 680,-428 588,-442 481,-442 353,-442 256,-422 189,-383 122,-344 88,-288 88,-215 88,-180 100,-145 124,-111 148,-76 192,-36 256,10 218,23 186,44 160,75 134,106 121,139 121,174 L 279,352 C 174,401 121,498 121,643 121,746 154,825 219,881 284,937 378,965 502,965 527,965 558,963 597,958 636,953 665,947 686,940 L 907,1051 942,1008 803,864 C 848,814 870,740 870,643 Z M 829,-127 C 829,-89 817,-59 794,-38 771,-17 735,-6 688,-6 L 324,-6 C 296,-30 273,-60 256,-98 238,-134 229,-169 229,-201 229,-258 250,-299 291,-325 332,-349 396,-362 481,-362 592,-362 678,-341 739,-300 799,-259 829,-201 829,-127 Z M 496,391 C 569,391 620,412 651,454 681,495 696,558 696,643 696,732 680,795 649,833 618,870 567,889 498,889 428,889 377,870 344,832 311,794 295,731 295,643 295,555 311,491 343,451 375,411 426,391 496,391 Z"
   id="glyph44" />
   <glyph
   unicode="f"
   horiz-adv-x="636"
   d="M 225,856 L 63,856 63,905 225,944 225,1010 C 225,1149 253,1255 308,1330 363,1405 440,1442 539,1442 590,1442 638,1436 682,1423 L 682,1218 633,1218 588,1341 C 565,1355 538,1362 506,1362 464,1362 434,1343 417,1306 400,1269 391,1199 391,1096 L 391,940 641,940 641,856 391,856 391,78 594,45 594,0 86,0 86,45 225,78 225,856 Z"
   id="glyph46" />
   <glyph
   unicode="e"
   horiz-adv-x="769"
   d="M 260,473 L 260,455 C 260,363 270,292 291,241 311,190 342,151 385,124 427,97 482,84 551,84 587,84 630,87 679,93 728,99 769,106 801,113 L 801,57 C 769,36 726,18 671,3 616,-12 559,-20 502,-20 356,-20 249,19 182,98 114,177 80,303 80,477 80,641 114,763 183,844 252,925 350,965 477,965 718,965 838,828 838,555 L 838,473 260,473 Z M 477,885 C 408,885 355,857 318,801 281,745 262,662 262,553 L 664,553 C 664,672 649,758 618,809 587,860 540,885 477,885 Z"
   id="glyph48" />
   <glyph
   unicode="d"
   horiz-adv-x="953"
   d="M 723,70 C 648,10 560,-20 459,-20 202,-20 74,140 74,461 74,626 110,751 183,837 256,922 363,965 504,965 576,965 649,957 723,942 719,964 717,1019 717,1108 L 717,1352 559,1376 559,1421 883,1421 883,70 999,45 999,0 735,0 723,70 Z M 254,461 C 254,334 275,240 318,178 361,115 426,84 514,84 589,84 657,97 717,123 L 717,866 C 658,877 590,883 514,883 341,883 254,742 254,461 Z"
   id="glyph50" />
   <glyph
   unicode="c"
   horiz-adv-x="795"
   d="M 846,57 C 813,33 768,14 711,1 654,-13 595,-20 535,-20 230,-20 78,146 78,477 78,634 117,754 195,839 272,923 383,965 528,965 618,965 716,955 823,934 L 823,672 768,672 725,838 C 670,869 603,885 526,885 347,885 258,749 258,477 258,336 285,235 340,175 394,114 478,84 592,84 689,84 774,95 846,117 L 846,57 Z"
   id="glyph52" />
   <glyph
   unicode="b"
   horiz-adv-x="954"
   d="M 766,496 C 766,619 745,710 702,770 659,830 593,860 504,860 465,860 426,857 387,850 348,843 320,835 303,827 L 303,82 C 359,71 426,66 504,66 596,66 663,102 704,174 745,246 766,353 766,496 Z M 137,1352 L 0,1376 0,1421 303,1421 303,1085 C 303,1049 301,983 297,887 364,939 448,965 549,965 677,965 775,926 844,849 912,771 946,653 946,496 946,327 909,199 834,112 759,24 650,-20 508,-20 451,-20 388,-14 319,-1 250,12 189,28 137,49 L 137,1352 Z"
   id="glyph54" />
   <glyph
   unicode="a"
   horiz-adv-x="848"
   d="M 465,961 C 568,961 643,940 692,898 740,856 764,792 764,705 L 764,70 881,45 881,0 623,0 604,94 C 528,18 431,-20 313,-20 152,-20 72,73 72,260 72,323 84,375 109,416 133,457 172,488 225,510 278,531 356,543 457,545 L 598,549 598,696 C 598,761 586,808 563,839 539,870 502,885 453,885 386,885 325,869 270,838 L 236,721 180,721 180,926 C 288,949 383,961 465,961 Z M 598,479 L 467,475 C 378,472 317,454 286,423 254,392 238,339 238,266 238,149 286,90 381,90 426,90 466,95 499,106 532,116 565,129 598,145 L 598,479 Z"
   id="glyph56" />
   <glyph
   unicode="_"
   horiz-adv-x="1085"
   d="M -16,-264 L -16,-162 1040,-162 1040,-264 -16,-264 Z"
   id="glyph58" />
   <glyph
   unicode="O"
   horiz-adv-x="1324"
   d="M 293,672 C 293,457 329,301 401,204 473,107 586,59 739,59 892,59 1004,107 1077,204 1150,301 1186,457 1186,672 1186,886 1150,1040 1078,1135 1005,1229 892,1276 739,1276 585,1276 472,1229 401,1135 329,1040 293,886 293,672 Z M 84,672 C 84,1128 302,1356 739,1356 955,1356 1118,1298 1229,1183 1340,1067 1395,897 1395,672 1395,444 1339,272 1227,155 1115,38 952,-20 739,-20 526,-20 364,38 252,155 140,271 84,443 84,672 Z"
   id="glyph60" />
   <glyph
   unicode="K"
   horiz-adv-x="1403"
   d="M 1353,1341 L 1353,1288 1198,1262 740,814 1313,80 1458,53 1458,0 1130,0 605,678 424,533 424,80 616,53 616,0 59,0 59,53 231,80 231,1262 59,1288 59,1341 596,1341 596,1288 424,1262 424,630 1066,1262 933,1288 933,1341 1353,1341 Z"
   id="glyph62" />
   <glyph
   unicode="F"
   horiz-adv-x="1033"
   d="M 424,602 L 424,80 647,53 647,0 72,0 72,53 231,80 231,1262 59,1288 59,1341 1065,1341 1065,1020 999,1020 967,1237 C 892,1246 784,1251 643,1251 L 424,1251 424,692 819,692 850,852 911,852 911,440 850,440 819,602 424,602 Z"
   id="glyph64" />
   <glyph
   unicode="A"
   horiz-adv-x="1483"
   d="M 461,53 L 461,0 20,0 20,53 172,80 629,1352 819,1352 1294,80 1464,53 1464,0 897,0 897,53 1077,80 944,467 416,467 281,80 461,53 Z M 676,1208 L 446,557 913,557 676,1208 Z"
   id="glyph66" />
   <glyph
   unicode="1"
   horiz-adv-x="742"
   d="M 627,80 L 901,53 901,0 180,0 180,53 455,80 455,1174 184,1077 184,1130 575,1352 627,1352 627,80 Z"
   id="glyph68" />
   <glyph
   unicode="/"
   horiz-adv-x="583"
   d="M 100,-20 L 0,-20 471,1350 569,1350 100,-20 Z"
   id="glyph70" />
   <glyph
   unicode="."
   horiz-adv-x="266"
   d="M 377,92 C 377,59 366,31 343,7 320,-17 291,-29 256,-29 221,-29 193,-17 170,7 147,31 135,59 135,92 135,126 147,155 170,178 193,201 222,213 256,213 290,213 319,201 342,178 365,155 377,126 377,92 Z"
   id="glyph72" />
   <glyph
   unicode="-"
   horiz-adv-x="557"
   d="M 76,406 L 76,559 608,559 608,406 76,406 Z"
   id="glyph74" />
   <glyph
   unicode=")"
   horiz-adv-x="557"
   d="M 66,-436 L 66,-352 C 141,-309 204,-251 254,-181 304,-109 341,-22 364,81 387,184 399,321 399,494 399,669 388,805 366,902 343,999 308,1085 260,1158 212,1231 147,1290 66,1337 L 66,1421 C 199,1350 303,1273 377,1191 451,1108 505,1011 540,900 575,788 592,653 592,494 592,335 575,200 540,88 505,-25 451,-122 377,-205 303,-288 199,-365 66,-436 Z"
   id="glyph76" />
   <glyph
   unicode="("
   horiz-adv-x="557"
   d="M 283,494 C 283,321 295,183 318,80 341,-23 378,-110 428,-181 478,-252 541,-309 616,-352 L 616,-436 C 484,-366 381,-289 307,-207 232,-123 178,-26 143,87 108,199 90,335 90,494 90,653 107,788 142,900 177,1011 231,1108 305,1191 379,1274 483,1350 616,1421 L 616,1337 C 535,1290 470,1231 422,1158 374,1085 339,999 317,902 294,805 283,669 283,494 Z"
   id="glyph78" />
   <glyph
   unicode=" "
   horiz-adv-x="503"
   id="glyph80" />
  </font>
</defs>
</svg>
